0
SECTION
2
HEADER
9
$ACADVER
1
AC1012
9
$EXTMIN
10
-0.010000
20
-0.010000
30
0.0
9
$EXTMAX
10
13.390000
20
14.180000
30
0.0
9
$LIMMIN
10
-0.254000
20
-0.254000
9
$LIMMAX
10
340.106000
20
360.172000
9
$DIMSCALE
40
1.000000
9
$PDMODE
70
2
9
$PDSIZE
40
0.0
  9
$HANDSEED
  5
bc8
0
ENDSEC
0
SECTION
2
CLASSES
0
ENDSEC
0
SECTION
2
TABLES
0
TABLE
2
LTYPE
5
1e
100
AcDbSymbolTable
70
12
0
LTYPE
5
1f
100
AcDbSymbolTableRecord
100
AcDbLinetypeTableRecord
2
BYBLOCK
70
0
3

72
65
73
0
40
0.0
0
LTYPE
5
20
100
AcDbSymbolTableRecord
100
AcDbLinetypeTableRecord
2
BYLAYER
70
0
3

72
65
73
0
40
0.0
0
LTYPE
5
21
100
AcDbSymbolTableRecord
100
AcDbLinetypeTableRecord
2
CONTINUOUS
70
64
3
Solid line
72
65
73
0
40
0.0
0
LTYPE
5
22
100
AcDbSymbolTableRecord
100
AcDbLinetypeTableRecord
2
DASHED
70
64
3
__ __ __ __ __ __ __ __ __ __ __ __ __ __ __
72
65
73
2
40
0.75
49
0.5
74
0
49
-0.25
74
0
0
LTYPE
5
23
100
AcDbSymbolTableRecord
100
AcDbLinetypeTableRecord
2
DOT
70
64
3
...............................................
72
65
73
2
40
0.25
49
0.0
74
0
49
-0.25
74
0
0
LTYPE
5
24
100
AcDbSymbolTableRecord
100
AcDbLinetypeTableRecord
2
DASHDOT
70
64
3
__ . __ . __ . __ . __ . __ . __ . __ . __ . --
72
65
73
4
40
1.0
49
0.5
74
0
49
-0.25
74
0
49
0.0
74
0
49
-0.25
74
0
0
LTYPE
5
25
100
AcDbSymbolTableRecord
100
AcDbLinetypeTableRecord
2
CENTER
70
64
3
____ _ ____ _ ____ _ ____ _ ____ _ ____ _ ____
72
65
73
4
40
2.0
49
1.25
74
0
49
-0.25
74
0
49
0.25
74
0
49
-0.25
74
0
0
LTYPE
5
26
100
AcDbSymbolTableRecord
100
AcDbLinetypeTableRecord
2
PHANTOM
70
64
3
_____ _ _ _____ _ _ _____ _ _ _____ _ _ ____
72
65
73
6
40
2.5
49
1.25
74
0
49
-0.25
74
0
49
0.25
74
0
49
-0.25
74
0
49
0.25
74
0
49
-0.25
74
0
0
LTYPE
5
27
100
AcDbSymbolTableRecord
100
AcDbLinetypeTableRecord
2
HIDDEN
70
64
3
_ _ _ _ _ _ _ _ _ _ _ _ _ _ _ _ _ _ _ _ _ _ _
72
65
73
2
40
0.375
49
0.25
74
0
49
-0.125
74
0
0
LTYPE
5
28
100
AcDbSymbolTableRecord
100
AcDbLinetypeTableRecord
2
BORDER
70
64
3
__ __ . __ __ . __ __ . __ __ . __ __ . __ __
72
65
73
6
40
1.75
49
0.5
74
0
49
-0.25
74
0
49
0.5
74
0
49
-0.25
74
0
49
0.0
74
0
49
-0.25
74
0
0
LTYPE
5
29
100
AcDbSymbolTableRecord
100
AcDbLinetypeTableRecord
2
DIVIDE
70
64
3
__ . . __ . . __ . . __ . . __ . . __ . . __
72
65
73
6
40
1.25
49
0.5
74
0
49
-0.25
74
0
49
0.0
74
0
49
-0.25
74
0
49
0.0
74
0
49
-0.25
74
0
0
LTYPE
5
2a
100
AcDbSymbolTableRecord
100
AcDbLinetypeTableRecord
2
DOT2
70
64
3
...............................................
72
65
73
2
40
0.125
49
0.0
74
0
49
-0.125
74
0
0
ENDTAB
0
TABLE
2
STYLE
5
2b
100
AcDbSymbolTable
70
1
0
STYLE
5
2c
100
AcDbSymbolTableRecord
100
AcDbTextStyleTableRecord
2
STANDARD
70
64
40
0.0
41
1.0
50
0.0
71
0
42
5.0
3
txt
4
bigfont
0
ENDTAB
0
TABLE
2
LAYER
5
2d
100
AcDbSymbolTable
70
3
0
LAYER
5
2e
100
AcDbSymbolTableRecord
100
AcDbLayerTableRecord
2
0
70
0
62
7
6
CONTINUOUS
0
LAYER
5
2f
100
AcDbSymbolTableRecord
100
AcDbLayerTableRecord
2
1
70
0
62
7
6
CONTINUOUS
0
LAYER
5
30
100
AcDbSymbolTableRecord
100
AcDbLayerTableRecord
2
DEFPOINTS
70
0
62
7
6
CONTINUOUS
0
ENDTAB
0
TABLE
2
APPID
5
31
100
AcDbSymbolTable
70
1
0
APPID
5
32
100
AcDbSymbolTableRecord
100
AcDbRegAppTableRecord
2
ACAD
70
64
0
ENDTAB
0
TABLE
2
DIMSTYLE
5
33
100
AcDbSymbolTable
70
0
0
ENDTAB
0
TABLE
2
UCS
5
34
100
AcDbSymbolTable
70
0
0
ENDTAB
0
TABLE
2
VIEW
5
35
100
AcDbSymbolTable
70
0
0
ENDTAB
0
TABLE
2
VPORT
5
36
100
AcDbSymbolTable
70
0
0
ENDTAB
0
TABLE
2
BLOCK_RECORD
5
37
100
AcDbSymbolTable
70
0
0
BLOCK_RECORD
5
38
100
AcDbSymbolTableRecord
100
AcDbBlockTableRecord
2
*MODEL_SPACE
0
BLOCK_RECORD
5
39
100
AcDbSymbolTableRecord
100
AcDbBlockTableRecord
2
*PAPER_SPACE
0
BLOCK_RECORD
5
3a
100
AcDbSymbolTableRecord
100
AcDbBlockTableRecord
2
OPEN
0
BLOCK_RECORD
5
3b
100
AcDbSymbolTableRecord
100
AcDbBlockTableRecord
2
HALF
0
BLOCK_RECORD
5
3c
100
AcDbSymbolTableRecord
100
AcDbBlockTableRecord
2
CLOSEDBLANK
0
BLOCK_RECORD
5
3d
100
AcDbSymbolTableRecord
100
AcDbBlockTableRecord
2
HALFCLOSE_R
0
BLOCK_RECORD
5
3e
100
AcDbSymbolTableRecord
100
AcDbBlockTableRecord
2
DOT
0
BLOCK_RECORD
5
3f
100
AcDbSymbolTableRecord
100
AcDbBlockTableRecord
2
HALFOPEN_R
0
BLOCK_RECORD
5
40
100
AcDbSymbolTableRecord
100
AcDbBlockTableRecord
2
CLOSEDF
0
BLOCK_RECORD
5
41
100
AcDbSymbolTableRecord
100
AcDbBlockTableRecord
2
HALF_R
0
BLOCK_RECORD
5
42
100
AcDbSymbolTableRecord
100
AcDbBlockTableRecord
2
*D1
0
BLOCK_RECORD
5
43
100
AcDbSymbolTableRecord
100
AcDbBlockTableRecord
2
*D2
0
BLOCK_RECORD
5
44
100
AcDbSymbolTableRecord
100
AcDbBlockTableRecord
2
*D3
0
BLOCK_RECORD
5
45
100
AcDbSymbolTableRecord
100
AcDbBlockTableRecord
2
*D4
0
BLOCK_RECORD
5
46
100
AcDbSymbolTableRecord
100
AcDbBlockTableRecord
2
*D5
0
BLOCK_RECORD
5
47
100
AcDbSymbolTableRecord
100
AcDbBlockTableRecord
2
*D6
0
BLOCK_RECORD
5
48
100
AcDbSymbolTableRecord
100
AcDbBlockTableRecord
2
*D7
0
BLOCK_RECORD
5
49
100
AcDbSymbolTableRecord
100
AcDbBlockTableRecord
2
*D8
0
BLOCK_RECORD
5
4a
100
AcDbSymbolTableRecord
100
AcDbBlockTableRecord
2
*D9
0
BLOCK_RECORD
5
4b
100
AcDbSymbolTableRecord
100
AcDbBlockTableRecord
2
*D10
0
BLOCK_RECORD
5
4c
100
AcDbSymbolTableRecord
100
AcDbBlockTableRecord
2
*D11
0
BLOCK_RECORD
5
4d
100
AcDbSymbolTableRecord
100
AcDbBlockTableRecord
2
*D12
0
BLOCK_RECORD
5
4e
100
AcDbSymbolTableRecord
100
AcDbBlockTableRecord
2
*D13
0
BLOCK_RECORD
5
4f
100
AcDbSymbolTableRecord
100
AcDbBlockTableRecord
2
*D14
0
BLOCK_RECORD
5
50
100
AcDbSymbolTableRecord
100
AcDbBlockTableRecord
2
*D15
0
BLOCK_RECORD
5
51
100
AcDbSymbolTableRecord
100
AcDbBlockTableRecord
2
*D16
0
BLOCK_RECORD
5
52
100
AcDbSymbolTableRecord
100
AcDbBlockTableRecord
2
*D17
0
BLOCK_RECORD
5
53
100
AcDbSymbolTableRecord
100
AcDbBlockTableRecord
2
*D18
0
BLOCK_RECORD
5
54
100
AcDbSymbolTableRecord
100
AcDbBlockTableRecord
2
*D19
0
BLOCK_RECORD
5
55
100
AcDbSymbolTableRecord
100
AcDbBlockTableRecord
2
*D20
0
BLOCK_RECORD
5
56
100
AcDbSymbolTableRecord
100
AcDbBlockTableRecord
2
*D21
0
BLOCK_RECORD
5
57
100
AcDbSymbolTableRecord
100
AcDbBlockTableRecord
2
*D22
0
BLOCK_RECORD
5
58
100
AcDbSymbolTableRecord
100
AcDbBlockTableRecord
2
*D23
0
BLOCK_RECORD
5
59
100
AcDbSymbolTableRecord
100
AcDbBlockTableRecord
2
*D24
0
BLOCK_RECORD
5
5a
100
AcDbSymbolTableRecord
100
AcDbBlockTableRecord
2
*D25
0
BLOCK_RECORD
5
5b
100
AcDbSymbolTableRecord
100
AcDbBlockTableRecord
2
*D26
0
BLOCK_RECORD
5
5c
100
AcDbSymbolTableRecord
100
AcDbBlockTableRecord
2
*D27
0
BLOCK_RECORD
5
5d
100
AcDbSymbolTableRecord
100
AcDbBlockTableRecord
2
*D28
0
BLOCK_RECORD
5
5e
100
AcDbSymbolTableRecord
100
AcDbBlockTableRecord
2
*D29
0
BLOCK_RECORD
5
5f
100
AcDbSymbolTableRecord
100
AcDbBlockTableRecord
2
*D30
0
BLOCK_RECORD
5
60
100
AcDbSymbolTableRecord
100
AcDbBlockTableRecord
2
*D31
0
BLOCK_RECORD
5
61
100
AcDbSymbolTableRecord
100
AcDbBlockTableRecord
2
*D32
0
BLOCK_RECORD
5
62
100
AcDbSymbolTableRecord
100
AcDbBlockTableRecord
2
*D33
0
BLOCK_RECORD
5
63
100
AcDbSymbolTableRecord
100
AcDbBlockTableRecord
2
*D34
0
BLOCK_RECORD
5
64
100
AcDbSymbolTableRecord
100
AcDbBlockTableRecord
2
*D35
0
BLOCK_RECORD
5
65
100
AcDbSymbolTableRecord
100
AcDbBlockTableRecord
2
*D36
0
BLOCK_RECORD
5
66
100
AcDbSymbolTableRecord
100
AcDbBlockTableRecord
2
*D37
0
BLOCK_RECORD
5
67
100
AcDbSymbolTableRecord
100
AcDbBlockTableRecord
2
*D38
0
BLOCK_RECORD
5
68
100
AcDbSymbolTableRecord
100
AcDbBlockTableRecord
2
*D39
0
BLOCK_RECORD
5
69
100
AcDbSymbolTableRecord
100
AcDbBlockTableRecord
2
*D40
0
BLOCK_RECORD
5
6a
100
AcDbSymbolTableRecord
100
AcDbBlockTableRecord
2
*D41
0
BLOCK_RECORD
5
6b
100
AcDbSymbolTableRecord
100
AcDbBlockTableRecord
2
*D42
0
BLOCK_RECORD
5
6c
100
AcDbSymbolTableRecord
100
AcDbBlockTableRecord
2
*D43
0
BLOCK_RECORD
5
6d
100
AcDbSymbolTableRecord
100
AcDbBlockTableRecord
2
*D44
0
BLOCK_RECORD
5
6e
100
AcDbSymbolTableRecord
100
AcDbBlockTableRecord
2
*D45
0
BLOCK_RECORD
5
6f
100
AcDbSymbolTableRecord
100
AcDbBlockTableRecord
2
*D46
0
BLOCK_RECORD
5
70
100
AcDbSymbolTableRecord
100
AcDbBlockTableRecord
2
*D47
0
BLOCK_RECORD
5
71
100
AcDbSymbolTableRecord
100
AcDbBlockTableRecord
2
*D48
0
BLOCK_RECORD
5
72
100
AcDbSymbolTableRecord
100
AcDbBlockTableRecord
2
*D49
0
BLOCK_RECORD
5
73
100
AcDbSymbolTableRecord
100
AcDbBlockTableRecord
2
*D50
0
BLOCK_RECORD
5
74
100
AcDbSymbolTableRecord
100
AcDbBlockTableRecord
2
*D51
0
BLOCK_RECORD
5
75
100
AcDbSymbolTableRecord
100
AcDbBlockTableRecord
2
*D52
0
BLOCK_RECORD
5
76
100
AcDbSymbolTableRecord
100
AcDbBlockTableRecord
2
*D53
0
BLOCK_RECORD
5
77
100
AcDbSymbolTableRecord
100
AcDbBlockTableRecord
2
*D54
0
BLOCK_RECORD
5
78
100
AcDbSymbolTableRecord
100
AcDbBlockTableRecord
2
*D55
0
BLOCK_RECORD
5
79
100
AcDbSymbolTableRecord
100
AcDbBlockTableRecord
2
*D56
0
BLOCK_RECORD
5
7a
100
AcDbSymbolTableRecord
100
AcDbBlockTableRecord
2
*D57
0
BLOCK_RECORD
5
7b
100
AcDbSymbolTableRecord
100
AcDbBlockTableRecord
2
*D58
0
BLOCK_RECORD
5
7c
100
AcDbSymbolTableRecord
100
AcDbBlockTableRecord
2
*D59
0
BLOCK_RECORD
5
7d
100
AcDbSymbolTableRecord
100
AcDbBlockTableRecord
2
*D60
0
BLOCK_RECORD
5
7e
100
AcDbSymbolTableRecord
100
AcDbBlockTableRecord
2
*D61
0
BLOCK_RECORD
5
7f
100
AcDbSymbolTableRecord
100
AcDbBlockTableRecord
2
*D62
0
BLOCK_RECORD
5
80
100
AcDbSymbolTableRecord
100
AcDbBlockTableRecord
2
*D63
0
BLOCK_RECORD
5
81
100
AcDbSymbolTableRecord
100
AcDbBlockTableRecord
2
*D64
0
BLOCK_RECORD
5
82
100
AcDbSymbolTableRecord
100
AcDbBlockTableRecord
2
*D65
0
BLOCK_RECORD
5
83
100
AcDbSymbolTableRecord
100
AcDbBlockTableRecord
2
*D66
0
BLOCK_RECORD
5
84
100
AcDbSymbolTableRecord
100
AcDbBlockTableRecord
2
*D67
0
BLOCK_RECORD
5
85
100
AcDbSymbolTableRecord
100
AcDbBlockTableRecord
2
*D68
0
BLOCK_RECORD
5
86
100
AcDbSymbolTableRecord
100
AcDbBlockTableRecord
2
*D69
0
BLOCK_RECORD
5
87
100
AcDbSymbolTableRecord
100
AcDbBlockTableRecord
2
*D70
0
BLOCK_RECORD
5
88
100
AcDbSymbolTableRecord
100
AcDbBlockTableRecord
2
*D71
0
BLOCK_RECORD
5
89
100
AcDbSymbolTableRecord
100
AcDbBlockTableRecord
2
*D72
0
BLOCK_RECORD
5
8a
100
AcDbSymbolTableRecord
100
AcDbBlockTableRecord
2
*D73
0
BLOCK_RECORD
5
8b
100
AcDbSymbolTableRecord
100
AcDbBlockTableRecord
2
*D74
0
BLOCK_RECORD
5
8c
100
AcDbSymbolTableRecord
100
AcDbBlockTableRecord
2
*D75
0
BLOCK_RECORD
5
8d
100
AcDbSymbolTableRecord
100
AcDbBlockTableRecord
2
*D76
0
BLOCK_RECORD
5
8e
100
AcDbSymbolTableRecord
100
AcDbBlockTableRecord
2
*D77
0
BLOCK_RECORD
5
8f
100
AcDbSymbolTableRecord
100
AcDbBlockTableRecord
2
*D78
0
BLOCK_RECORD
5
90
100
AcDbSymbolTableRecord
100
AcDbBlockTableRecord
2
*D79
0
BLOCK_RECORD
5
91
100
AcDbSymbolTableRecord
100
AcDbBlockTableRecord
2
*D80
0
BLOCK_RECORD
5
92
100
AcDbSymbolTableRecord
100
AcDbBlockTableRecord
2
*D81
0
BLOCK_RECORD
5
93
100
AcDbSymbolTableRecord
100
AcDbBlockTableRecord
2
*D82
0
BLOCK_RECORD
5
94
100
AcDbSymbolTableRecord
100
AcDbBlockTableRecord
2
*D83
0
BLOCK_RECORD
5
95
100
AcDbSymbolTableRecord
100
AcDbBlockTableRecord
2
*D84
0
BLOCK_RECORD
5
96
100
AcDbSymbolTableRecord
100
AcDbBlockTableRecord
2
*D85
0
BLOCK_RECORD
5
97
100
AcDbSymbolTableRecord
100
AcDbBlockTableRecord
2
*D86
0
BLOCK_RECORD
5
98
100
AcDbSymbolTableRecord
100
AcDbBlockTableRecord
2
*D87
0
BLOCK_RECORD
5
99
100
AcDbSymbolTableRecord
100
AcDbBlockTableRecord
2
*D88
0
BLOCK_RECORD
5
9a
100
AcDbSymbolTableRecord
100
AcDbBlockTableRecord
2
*D89
0
BLOCK_RECORD
5
9b
100
AcDbSymbolTableRecord
100
AcDbBlockTableRecord
2
*D90
0
BLOCK_RECORD
5
9c
100
AcDbSymbolTableRecord
100
AcDbBlockTableRecord
2
*D91
0
BLOCK_RECORD
5
9d
100
AcDbSymbolTableRecord
100
AcDbBlockTableRecord
2
*D92
0
BLOCK_RECORD
5
9e
100
AcDbSymbolTableRecord
100
AcDbBlockTableRecord
2
*D93
0
BLOCK_RECORD
5
9f
100
AcDbSymbolTableRecord
100
AcDbBlockTableRecord
2
*D94
0
BLOCK_RECORD
5
a0
100
AcDbSymbolTableRecord
100
AcDbBlockTableRecord
2
*D95
0
BLOCK_RECORD
5
a1
100
AcDbSymbolTableRecord
100
AcDbBlockTableRecord
2
*D96
0
BLOCK_RECORD
5
a2
100
AcDbSymbolTableRecord
100
AcDbBlockTableRecord
2
*D97
0
BLOCK_RECORD
5
a3
100
AcDbSymbolTableRecord
100
AcDbBlockTableRecord
2
*D98
0
BLOCK_RECORD
5
a4
100
AcDbSymbolTableRecord
100
AcDbBlockTableRecord
2
*D99
0
BLOCK_RECORD
5
a5
100
AcDbSymbolTableRecord
100
AcDbBlockTableRecord
2
*D100
0
BLOCK_RECORD
5
a6
100
AcDbSymbolTableRecord
100
AcDbBlockTableRecord
2
*D101
0
BLOCK_RECORD
5
a7
100
AcDbSymbolTableRecord
100
AcDbBlockTableRecord
2
*D102
0
BLOCK_RECORD
5
a8
100
AcDbSymbolTableRecord
100
AcDbBlockTableRecord
2
*D103
0
BLOCK_RECORD
5
a9
100
AcDbSymbolTableRecord
100
AcDbBlockTableRecord
2
*D104
0
BLOCK_RECORD
5
aa
100
AcDbSymbolTableRecord
100
AcDbBlockTableRecord
2
*D105
0
BLOCK_RECORD
5
ab
100
AcDbSymbolTableRecord
100
AcDbBlockTableRecord
2
*D106
0
BLOCK_RECORD
5
ac
100
AcDbSymbolTableRecord
100
AcDbBlockTableRecord
2
*D107
0
BLOCK_RECORD
5
ad
100
AcDbSymbolTableRecord
100
AcDbBlockTableRecord
2
*D108
0
BLOCK_RECORD
5
ae
100
AcDbSymbolTableRecord
100
AcDbBlockTableRecord
2
*D109
0
BLOCK_RECORD
5
af
100
AcDbSymbolTableRecord
100
AcDbBlockTableRecord
2
*D110
0
BLOCK_RECORD
5
b0
100
AcDbSymbolTableRecord
100
AcDbBlockTableRecord
2
*D111
0
BLOCK_RECORD
5
b1
100
AcDbSymbolTableRecord
100
AcDbBlockTableRecord
2
*D112
0
BLOCK_RECORD
5
b2
100
AcDbSymbolTableRecord
100
AcDbBlockTableRecord
2
*D113
0
BLOCK_RECORD
5
b3
100
AcDbSymbolTableRecord
100
AcDbBlockTableRecord
2
*D114
0
BLOCK_RECORD
5
b4
100
AcDbSymbolTableRecord
100
AcDbBlockTableRecord
2
*D115
0
BLOCK_RECORD
5
b5
100
AcDbSymbolTableRecord
100
AcDbBlockTableRecord
2
*D116
0
BLOCK_RECORD
5
b6
100
AcDbSymbolTableRecord
100
AcDbBlockTableRecord
2
*D117
0
BLOCK_RECORD
5
b7
100
AcDbSymbolTableRecord
100
AcDbBlockTableRecord
2
*D118
0
BLOCK_RECORD
5
b8
100
AcDbSymbolTableRecord
100
AcDbBlockTableRecord
2
*D119
0
BLOCK_RECORD
5
b9
100
AcDbSymbolTableRecord
100
AcDbBlockTableRecord
2
*D120
0
BLOCK_RECORD
5
ba
100
AcDbSymbolTableRecord
100
AcDbBlockTableRecord
2
*D121
0
BLOCK_RECORD
5
bb
100
AcDbSymbolTableRecord
100
AcDbBlockTableRecord
2
*D122
0
BLOCK_RECORD
5
bc
100
AcDbSymbolTableRecord
100
AcDbBlockTableRecord
2
*D123
0
BLOCK_RECORD
5
bd
100
AcDbSymbolTableRecord
100
AcDbBlockTableRecord
2
*D124
0
BLOCK_RECORD
5
be
100
AcDbSymbolTableRecord
100
AcDbBlockTableRecord
2
*D125
0
BLOCK_RECORD
5
bf
100
AcDbSymbolTableRecord
100
AcDbBlockTableRecord
2
*D126
0
BLOCK_RECORD
5
c0
100
AcDbSymbolTableRecord
100
AcDbBlockTableRecord
2
*D127
0
BLOCK_RECORD
5
c1
100
AcDbSymbolTableRecord
100
AcDbBlockTableRecord
2
*D128
0
BLOCK_RECORD
5
c2
100
AcDbSymbolTableRecord
100
AcDbBlockTableRecord
2
*D129
0
BLOCK_RECORD
5
c3
100
AcDbSymbolTableRecord
100
AcDbBlockTableRecord
2
*D130
0
BLOCK_RECORD
5
c4
100
AcDbSymbolTableRecord
100
AcDbBlockTableRecord
2
*D131
0
BLOCK_RECORD
5
c5
100
AcDbSymbolTableRecord
100
AcDbBlockTableRecord
2
*D132
0
BLOCK_RECORD
5
c6
100
AcDbSymbolTableRecord
100
AcDbBlockTableRecord
2
*D133
0
BLOCK_RECORD
5
c7
100
AcDbSymbolTableRecord
100
AcDbBlockTableRecord
2
*D134
0
BLOCK_RECORD
5
c8
100
AcDbSymbolTableRecord
100
AcDbBlockTableRecord
2
*D135
0
BLOCK_RECORD
5
c9
100
AcDbSymbolTableRecord
100
AcDbBlockTableRecord
2
*D136
0
BLOCK_RECORD
5
ca
100
AcDbSymbolTableRecord
100
AcDbBlockTableRecord
2
*D137
0
BLOCK_RECORD
5
cb
100
AcDbSymbolTableRecord
100
AcDbBlockTableRecord
2
*D138
0
BLOCK_RECORD
5
cc
100
AcDbSymbolTableRecord
100
AcDbBlockTableRecord
2
*D139
0
BLOCK_RECORD
5
cd
100
AcDbSymbolTableRecord
100
AcDbBlockTableRecord
2
*D140
0
BLOCK_RECORD
5
ce
100
AcDbSymbolTableRecord
100
AcDbBlockTableRecord
2
*D141
0
BLOCK_RECORD
5
cf
100
AcDbSymbolTableRecord
100
AcDbBlockTableRecord
2
*D142
0
BLOCK_RECORD
5
d0
100
AcDbSymbolTableRecord
100
AcDbBlockTableRecord
2
*D143
0
BLOCK_RECORD
5
d1
100
AcDbSymbolTableRecord
100
AcDbBlockTableRecord
2
*D144
0
BLOCK_RECORD
5
d2
100
AcDbSymbolTableRecord
100
AcDbBlockTableRecord
2
*D145
0
BLOCK_RECORD
5
d3
100
AcDbSymbolTableRecord
100
AcDbBlockTableRecord
2
*D146
0
BLOCK_RECORD
5
d4
100
AcDbSymbolTableRecord
100
AcDbBlockTableRecord
2
*D147
0
BLOCK_RECORD
5
d5
100
AcDbSymbolTableRecord
100
AcDbBlockTableRecord
2
*D148
0
BLOCK_RECORD
5
d6
100
AcDbSymbolTableRecord
100
AcDbBlockTableRecord
2
*D149
0
BLOCK_RECORD
5
d7
100
AcDbSymbolTableRecord
100
AcDbBlockTableRecord
2
*D150
0
BLOCK_RECORD
5
d8
100
AcDbSymbolTableRecord
100
AcDbBlockTableRecord
2
*D151
0
BLOCK_RECORD
5
d9
100
AcDbSymbolTableRecord
100
AcDbBlockTableRecord
2
*D152
0
BLOCK_RECORD
5
da
100
AcDbSymbolTableRecord
100
AcDbBlockTableRecord
2
*D153
0
BLOCK_RECORD
5
db
100
AcDbSymbolTableRecord
100
AcDbBlockTableRecord
2
*D154
0
BLOCK_RECORD
5
dc
100
AcDbSymbolTableRecord
100
AcDbBlockTableRecord
2
*D155
0
BLOCK_RECORD
5
dd
100
AcDbSymbolTableRecord
100
AcDbBlockTableRecord
2
*D156
0
ENDTAB
0
ENDSEC
0
SECTION
2
BLOCKS
0
BLOCK
5
de
100
AcDbEntity
8
0
100
AcDbBlockBegin
2
*MODEL_SPACE
70
0
10
0.0
20
0.0
30
0.0
3
*MODEL_SPACE
1

0
ENDBLK
5
df
100
AcDbEntity
8
0
100
AcDbBlockEnd
0
BLOCK
5
e0
100
AcDbEntity
67
1
8
0
100
AcDbBlockBegin
2
*PAPER_SPACE
70
0
10
0.0
20
0.0
30
0.0
3
*PAPER_SPACE
1

0
ENDBLK
5
e1
100
AcDbEntity
67
1
8
0
100
AcDbBlockEnd
0
BLOCK
5
e2
100
AcDbEntity
8
0
100
AcDbBlockBegin
2
OPEN
70
0
10
0.0
20
0.0
30
0.0
3
OPEN
1

0
LINE
5
e3
100
AcDbEntity
8
0
6
BYBLOCK
62
0
100
AcDbLine
10
0.000000
20
0.000000
11
-1.000000
21
0.000000
0
LINE
5
e4
100
AcDbEntity
8
0
6
BYBLOCK
62
0
100
AcDbLine
10
-1.000000
20
-0.166667
11
0.000000
21
0.000000
0
LINE
5
e5
100
AcDbEntity
8
0
6
BYBLOCK
62
0
100
AcDbLine
10
-1.000000
20
0.166667
11
0.000000
21
0.000000
0
ENDBLK
5
e6
100
AcDbEntity
8
0
100
AcDbBlockEnd
0
BLOCK
5
e7
100
AcDbEntity
8
0
100
AcDbBlockBegin
2
HALF
70
0
10
0.0
20
0.0
30
0.0
3
HALF
1

0
SOLID
5
e8
100
AcDbEntity
8
0
6
BYBLOCK
62
0
100
AcDbTrace
10
-1.000000
20
0.166667
11
-1.000000
21
-0.166667
12
0.000000
22
0.000000
13
0.000000
23
0.000000
0
ENDBLK
5
e9
100
AcDbEntity
8
0
100
AcDbBlockEnd
0
BLOCK
5
ea
100
AcDbEntity
8
0
100
AcDbBlockBegin
2
CLOSEDBLANK
70
0
10
0.0
20
0.0
30
0.0
3
CLOSEDBLANK
1

0
LINE
5
eb
100
AcDbEntity
8
0
6
BYBLOCK
62
0
100
AcDbLine
10
-1.000000
20
0.166667
11
-1.000000
21
-0.166667
0
LINE
5
ec
100
AcDbEntity
8
0
6
BYBLOCK
62
0
100
AcDbLine
10
0.000000
20
0.000000
11
-1.000000
21
-0.166667
0
LINE
5
ed
100
AcDbEntity
8
0
6
BYBLOCK
62
0
100
AcDbLine
10
-1.000000
20
0.166667
11
0.000000
21
0.000000
0
ENDBLK
5
ee
100
AcDbEntity
8
0
100
AcDbBlockEnd
0
BLOCK
5
ef
100
AcDbEntity
8
0
100
AcDbBlockBegin
2
HALFCLOSE_R
70
0
10
0.0
20
0.0
30
0.0
3
HALFCLOSE_R
1

0
LINE
5
f0
100
AcDbEntity
8
0
6
BYBLOCK
62
0
100
AcDbLine
10
-1.000000
20
-0.166667
11
-1.000000
21
0.000000
0
LINE
5
f1
100
AcDbEntity
8
0
6
BYBLOCK
62
0
100
AcDbLine
10
-1.000000
20
-0.166667
11
0.000000
21
0.000000
0
LINE
5
f2
100
AcDbEntity
8
0
6
BYBLOCK
62
0
100
AcDbLine
10
0.000000
20
0.000000
11
-1.000000
21
0.000000
0
ENDBLK
5
f3
100
AcDbEntity
8
0
100
AcDbBlockEnd
0
BLOCK
5
f4
100
AcDbEntity
8
0
100
AcDbBlockBegin
2
DOT
70
0
10
0.0
20
0.0
30
0.0
3
DOT
1

0
LINE
5
f5
100
AcDbEntity
8
0
6
BYBLOCK
62
0
100
AcDbLine
10
0.000000
20
0.000000
11
-1.000000
21
0.000000
0
POLYLINE
5
f6
100
AcDbEntity
8
0
6
BYBLOCK
62
0
100
AcDb2dPolyline
66
1
10
0.0
20
0.0
30
0.0
70
1
40
0.166667
41
0.166667
0
VERTEX
5
f7
100
AcDbEntity
8
0
100
AcDbVertex
100
AcDb2dVertex
62
10
10
-0.083333
20
0.000000
42
1.000000
0
VERTEX
5
f8
100
AcDbEntity
8
0
100
AcDbVertex
100
AcDb2dVertex
62
10
10
0.083333
20
0.000000
42
1.000000
0
SEQEND
5
f9
100
AcDbEntity
8
0
0
ENDBLK
5
fa
100
AcDbEntity
8
0
100
AcDbBlockEnd
0
BLOCK
5
fb
100
AcDbEntity
8
0
100
AcDbBlockBegin
2
HALFOPEN_R
70
0
10
0.0
20
0.0
30
0.0
3
HALFOPEN_R
1

0
LINE
5
fc
100
AcDbEntity
8
0
6
BYBLOCK
62
0
100
AcDbLine
10
-1.000000
20
-0.166667
11
0.000000
21
0.000000
0
LINE
5
fd
100
AcDbEntity
8
0
6
BYBLOCK
62
0
100
AcDbLine
10
0.000000
20
0.000000
11
-1.000000
21
0.000000
0
ENDBLK
5
fe
100
AcDbEntity
8
0
100
AcDbBlockEnd
0
BLOCK
5
ff
100
AcDbEntity
8
0
100
AcDbBlockBegin
2
CLOSEDF
70
0
10
0.0
20
0.0
30
0.0
3
CLOSEDF
1

0
SOLID
5
100
100
AcDbEntity
8
0
6
BYBLOCK
62
0
100
AcDbTrace
10
-1.000000
20
0.166667
11
-1.000000
21
-0.166667
12
0.000000
22
0.000000
13
0.000000
23
0.000000
0
ENDBLK
5
101
100
AcDbEntity
8
0
100
AcDbBlockEnd
0
BLOCK
5
102
100
AcDbEntity
8
0
100
AcDbBlockBegin
2
HALF_R
70
0
10
0.0
20
0.0
30
0.0
3
HALF_R
1

0
SOLID
5
103
100
AcDbEntity
8
0
6
BYBLOCK
62
0
100
AcDbTrace
10
-1.000000
20
-0.166667
11
-1.000000
21
0.000000
12
0.000000
22
0.000000
13
0.000000
23
0.000000
0
ENDBLK
5
104
100
AcDbEntity
8
0
100
AcDbBlockEnd
0
BLOCK
5
105
100
AcDbEntity
8
1
100
AcDbBlockBegin
2
*D1
70
65
10
0.000000
20
0.000000
3
*D
0
LINE
5
106
100
AcDbEntity
8
1
6
DOT2
62
11
100
AcDbLine
10
2567.202218
20
347.987481
11
2567.202218
21
333.987481
0
LINE
5
107
100
AcDbEntity
8
1
6
DOT2
62
11
100
AcDbLine
10
2588.197186
20
347.987481
11
2588.197186
21
333.987481
0
LINE
5
108
100
AcDbEntity
8
1
6
DOT2
62
11
100
AcDbLine
10
2567.202218
20
335.987481
11
2588.197186
21
335.987481
0
INSERT
5
109
100
AcDbEntity
8
1
6
DOT2
62
11
100
AcDbBlockReference
2
HALF
10
2567.202218
20
335.987481
41
0.116929
42
0.116929
43
0.116929
50
180.000000
0
INSERT
5
10a
100
AcDbEntity
8
1
6
DOT2
62
11
100
AcDbBlockReference
2
HALF
10
2588.197186
20
335.987481
41
0.116929
42
0.116929
43
0.116929
0
TEXT
5
10b
100
AcDbEntity
8
1
62
11
100
AcDbText
10
2577.559716
20
336.017814
40
0.138583
41
0.825
1
21
7
STANDARD
72
0
100
AcDbText
0
POINT
5
10c
100
AcDbEntity
8
DEFPOINTS
6
DOT2
62
11
100
AcDbPoint
10
2567.202218
20
349.487481
0
POINT
5
10d
100
AcDbEntity
8
DEFPOINTS
6
DOT2
62
11
100
AcDbPoint
10
2588.197186
20
349.487481
0
POINT
5
10e
100
AcDbEntity
8
DEFPOINTS
6
DOT2
62
11
100
AcDbPoint
10
2588.197186
20
335.987481
0
ENDBLK
5
10f
100
AcDbEntity
8
1
100
AcDbBlockEnd
0
BLOCK
5
110
100
AcDbEntity
8
1
100
AcDbBlockBegin
2
*D2
70
65
10
0.000000
20
0.000000
3
*D
0
LINE
5
111
100
AcDbEntity
8
1
6
DOT2
62
11
100
AcDbLine
10
2565.202218
20
344.416592
11
2565.202218
21
330.987481
0
LINE
5
112
100
AcDbEntity
8
1
6
DOT2
62
11
100
AcDbLine
10
2590.197186
20
343.487481
11
2590.197186
21
330.987481
0
LINE
5
113
100
AcDbEntity
8
1
6
DOT2
62
11
100
AcDbLine
10
2565.202218
20
332.987481
11
2590.197186
21
332.987481
0
INSERT
5
114
100
AcDbEntity
8
1
6
DOT2
62
11
100
AcDbBlockReference
2
HALF
10
2565.202218
20
332.987481
41
0.116929
42
0.116929
43
0.116929
50
180.000000
0
INSERT
5
115
100
AcDbEntity
8
1
6
DOT2
62
11
100
AcDbBlockReference
2
HALF
10
2590.197186
20
332.987481
41
0.116929
42
0.116929
43
0.116929
0
TEXT
5
116
100
AcDbEntity
8
1
62
11
100
AcDbText
10
2577.899894
20
333.017814
40
0.138583
41
0.825
1
25
7
STANDARD
72
0
100
AcDbText
0
POINT
5
117
100
AcDbEntity
8
DEFPOINTS
6
DOT2
62
11
100
AcDbPoint
10
2565.202218
20
345.916592
0
POINT
5
118
100
AcDbEntity
8
DEFPOINTS
6
DOT2
62
11
100
AcDbPoint
10
2590.197186
20
344.987481
0
POINT
5
119
100
AcDbEntity
8
DEFPOINTS
6
DOT2
62
11
100
AcDbPoint
10
2590.197186
20
332.987481
0
ENDBLK
5
11a
100
AcDbEntity
8
1
100
AcDbBlockEnd
0
BLOCK
5
11b
100
AcDbEntity
8
1
100
AcDbBlockBegin
2
*D3
70
65
10
0.000000
20
0.000000
3
*D
0
LINE
5
11c
100
AcDbEntity
8
1
6
DOT2
62
11
100
AcDbLine
10
2566.473081
20
369.009544
11
2572.202218
21
364.987481
0
INSERT
5
11d
100
AcDbEntity
8
1
6
DOT2
62
11
100
AcDbBlockReference
2
HALF
10
2566.473081
20
369.009544
41
0.116929
42
0.116929
43
0.116929
50
144.929746
0
LINE
5
11e
100
AcDbEntity
8
1
6
DOT2
62
11
100
AcDbLine
10
2572.202218
20
364.987481
11
2566.473081
21
369.009544
0
TEXT
5
11f
100
AcDbEntity
8
1
62
11
100
AcDbText
10
2562.775853
20
371.642194
40
0.138583
41
0.825
1
R7
50
-35.070254
7
STANDARD
72
0
100
AcDbText
0
POINT
5
120
100
AcDbEntity
8
DEFPOINTS
6
DOT2
62
11
100
AcDbPoint
10
2566.473081
20
369.009544
0
POINT
5
121
100
AcDbEntity
8
DEFPOINTS
6
DOT2
62
11
100
AcDbPoint
10
2572.202218
20
364.987481
0
ENDBLK
5
122
100
AcDbEntity
8
1
100
AcDbBlockEnd
0
BLOCK
5
123
100
AcDbEntity
8
1
100
AcDbBlockBegin
2
*D4
70
65
10
0.000000
20
0.000000
3
*D
0
LINE
5
124
100
AcDbEntity
8
1
6
DOT2
62
11
100
AcDbLine
10
2569.888034
20
369.419699
11
2572.202218
21
364.987481
0
INSERT
5
125
100
AcDbEntity
8
1
6
DOT2
62
11
100
AcDbBlockReference
2
HALF
10
2569.888034
20
369.419699
41
0.116929
42
0.116929
43
0.116929
50
117.570303
0
LINE
5
126
100
AcDbEntity
8
1
6
DOT2
62
11
100
AcDbLine
10
2572.202218
20
364.987481
11
2569.888034
21
369.419699
0
TEXT
5
127
100
AcDbEntity
8
1
62
11
100
AcDbText
10
2567.796421
20
373.491178
40
0.138583
41
0.825
1
R5
50
-62.429697
7
STANDARD
72
0
100
AcDbText
0
POINT
5
128
100
AcDbEntity
8
DEFPOINTS
6
DOT2
62
11
100
AcDbPoint
10
2569.888034
20
369.419699
0
POINT
5
129
100
AcDbEntity
8
DEFPOINTS
6
DOT2
62
11
100
AcDbPoint
10
2572.202218
20
364.987481
0
ENDBLK
5
12a
100
AcDbEntity
8
1
100
AcDbBlockEnd
0
BLOCK
5
12b
100
AcDbEntity
8
1
100
AcDbBlockBegin
2
*D5
70
65
10
0.000000
20
0.000000
3
*D
0
LINE
5
12c
100
AcDbEntity
8
1
6
DOT2
62
11
100
AcDbLine
10
2583.697186
20
369.987481
11
2595.197186
21
369.987481
0
LINE
5
12d
100
AcDbEntity
8
1
6
DOT2
62
11
100
AcDbLine
10
2583.697186
20
340.237481
11
2595.197186
21
340.237481
0
LINE
5
12e
100
AcDbEntity
8
1
6
DOT2
62
11
100
AcDbLine
10
2593.197186
20
369.987481
11
2593.197186
21
340.237481
0
INSERT
5
12f
100
AcDbEntity
8
1
6
DOT2
62
11
100
AcDbBlockReference
2
HALF
10
2593.197186
20
340.237481
41
0.116929
42
0.116929
43
0.116929
50
270.000000
0
INSERT
5
130
100
AcDbEntity
8
1
6
DOT2
62
11
100
AcDbBlockReference
2
HALF
10
2593.197186
20
369.987481
41
0.116929
42
0.116929
43
0.116929
50
90.000000
0
TEXT
5
131
100
AcDbEntity
8
1
62
11
100
AcDbText
10
2593.166854
20
354.894613
40
0.138583
41
0.825
1
6
50
90.000000
7
STANDARD
72
0
100
AcDbText
0
POINT
5
132
100
AcDbEntity
8
DEFPOINTS
6
DOT2
62
11
100
AcDbPoint
10
2582.197186
20
369.987481
0
POINT
5
133
100
AcDbEntity
8
DEFPOINTS
6
DOT2
62
11
100
AcDbPoint
10
2582.197186
20
340.237481
0
POINT
5
134
100
AcDbEntity
8
DEFPOINTS
6
DOT2
62
11
100
AcDbPoint
10
2593.197186
20
340.237481
0
ENDBLK
5
135
100
AcDbEntity
8
1
100
AcDbBlockEnd
0
BLOCK
5
136
100
AcDbEntity
8
1
100
AcDbBlockBegin
2
*D6
70
65
10
0.000000
20
0.000000
3
*D
0
LINE
5
137
100
AcDbEntity
8
1
6
DOT2
62
11
100
AcDbLine
10
2584.697186
20
371.987481
11
2598.197186
21
371.987481
0
LINE
5
138
100
AcDbEntity
8
1
6
DOT2
62
11
100
AcDbLine
10
2584.697186
20
337.987481
11
2598.197186
21
337.987481
0
LINE
5
139
100
AcDbEntity
8
1
6
DOT2
62
11
100
AcDbLine
10
2596.197186
20
371.987481
11
2596.197186
21
337.987481
0
INSERT
5
13a
100
AcDbEntity
8
1
6
DOT2
62
11
100
AcDbBlockReference
2
HALF
10
2596.197186
20
337.987481
41
0.116929
42
0.116929
43
0.116929
50
270.000000
0
INSERT
5
13b
100
AcDbEntity
8
1
6
DOT2
62
11
100
AcDbBlockReference
2
HALF
10
2596.197186
20
371.987481
41
0.116929
42
0.116929
43
0.116929
50
90.000000
0
TEXT
5
13c
100
AcDbEntity
8
1
62
11
100
AcDbText
10
2596.166854
20
354.053745
40
0.138583
41
0.825
1
34
50
90.000000
7
STANDARD
72
0
100
AcDbText
0
POINT
5
13d
100
AcDbEntity
8
DEFPOINTS
6
DOT2
62
11
100
AcDbPoint
10
2583.197186
20
371.987481
0
POINT
5
13e
100
AcDbEntity
8
DEFPOINTS
6
DOT2
62
11
100
AcDbPoint
10
2583.197186
20
337.987481
0
POINT
5
13f
100
AcDbEntity
8
DEFPOINTS
6
DOT2
62
11
100
AcDbPoint
10
2596.197186
20
337.987481
0
ENDBLK
5
140
100
AcDbEntity
8
1
100
AcDbBlockEnd
0
BLOCK
5
141
100
AcDbEntity
8
1
100
AcDbBlockBegin
2
*D7
70
65
10
0.000000
20
0.000000
3
*D
0
LINE
5
142
100
AcDbEntity
8
1
6
DOT2
62
11
100
AcDbLine
10
2585.700637
20
367.845496
11
2582.037885
21
363.752894
0
LINE
5
143
100
AcDbEntity
8
1
6
DOT2
62
11
100
AcDbLine
10
2582.037885
20
363.752894
11
2575.669775
21
363.752894
0
INSERT
5
144
100
AcDbEntity
8
1
6
DOT2
62
11
100
AcDbBlockReference
2
HALF
10
2585.700637
20
367.845496
41
0.116929
42
0.116929
43
0.116929
50
48.172438
0
LINE
5
145
100
AcDbEntity
8
1
6
DOT2
62
11
100
AcDbLine
10
2583.113182
20
365.051163
11
2583.286410
21
365.051163
0
LINE
5
146
100
AcDbEntity
8
1
6
DOT2
62
11
100
AcDbLine
10
2583.199796
20
364.964549
11
2583.199796
21
365.137777
0
TEXT
5
147
100
AcDbEntity
8
1
62
11
100
AcDbText
10
2585.038239
20
363.783227
40
0.138583
41
0.825
1
R0.8
7
STANDARD
72
0
100
AcDbText
0
POINT
5
148
100
AcDbEntity
8
DEFPOINTS
6
DOT2
62
11
100
AcDbPoint
10
2585.700637
20
367.845496
0
POINT
5
149
100
AcDbEntity
8
DEFPOINTS
6
DOT2
62
11
100
AcDbPoint
10
2583.199796
20
365.051163
0
ENDBLK
5
14a
100
AcDbEntity
8
1
100
AcDbBlockEnd
0
BLOCK
5
14b
100
AcDbEntity
8
1
100
AcDbBlockBegin
2
*D8
70
65
10
0.000000
20
0.000000
3
*D
0
LINE
5
14c
100
AcDbEntity
8
1
6
DOT2
62
11
100
AcDbLine
10
2566.871489
20
348.467039
11
2566.871489
21
334.467039
0
LINE
5
14d
100
AcDbEntity
8
1
6
DOT2
62
11
100
AcDbLine
10
2587.866457
20
348.467039
11
2587.866457
21
334.467039
0
LINE
5
14e
100
AcDbEntity
8
1
6
DOT2
62
11
100
AcDbLine
10
2566.871489
20
336.467039
11
2587.866457
21
336.467039
0
INSERT
5
14f
100
AcDbEntity
8
1
6
DOT2
62
11
100
AcDbBlockReference
2
HALF
10
2566.871489
20
336.467039
41
0.116929
42
0.116929
43
0.116929
50
180.000000
0
INSERT
5
150
100
AcDbEntity
8
1
6
DOT2
62
11
100
AcDbBlockReference
2
HALF
10
2587.866457
20
336.467039
41
0.116929
42
0.116929
43
0.116929
0
TEXT
5
151
100
AcDbEntity
8
1
62
11
100
AcDbText
10
2577.228987
20
336.497371
40
0.138583
41
0.825
1
21
7
STANDARD
72
0
100
AcDbText
0
POINT
5
152
100
AcDbEntity
8
DEFPOINTS
6
DOT2
62
11
100
AcDbPoint
10
2566.871489
20
349.967039
0
POINT
5
153
100
AcDbEntity
8
DEFPOINTS
6
DOT2
62
11
100
AcDbPoint
10
2587.866457
20
349.967039
0
POINT
5
154
100
AcDbEntity
8
DEFPOINTS
6
DOT2
62
11
100
AcDbPoint
10
2587.866457
20
336.467039
0
ENDBLK
5
155
100
AcDbEntity
8
1
100
AcDbBlockEnd
0
BLOCK
5
156
100
AcDbEntity
8
1
100
AcDbBlockBegin
2
*D9
70
65
10
0.000000
20
0.000000
3
*D
0
LINE
5
157
100
AcDbEntity
8
1
6
DOT2
62
11
100
AcDbLine
10
2564.871489
20
344.896149
11
2564.871489
21
331.467039
0
LINE
5
158
100
AcDbEntity
8
1
6
DOT2
62
11
100
AcDbLine
10
2589.866457
20
343.967039
11
2589.866457
21
331.467039
0
LINE
5
159
100
AcDbEntity
8
1
6
DOT2
62
11
100
AcDbLine
10
2564.871489
20
333.467039
11
2589.866457
21
333.467039
0
INSERT
5
15a
100
AcDbEntity
8
1
6
DOT2
62
11
100
AcDbBlockReference
2
HALF
10
2564.871489
20
333.467039
41
0.116929
42
0.116929
43
0.116929
50
180.000000
0
INSERT
5
15b
100
AcDbEntity
8
1
6
DOT2
62
11
100
AcDbBlockReference
2
HALF
10
2589.866457
20
333.467039
41
0.116929
42
0.116929
43
0.116929
0
TEXT
5
15c
100
AcDbEntity
8
1
62
11
100
AcDbText
10
2577.569165
20
333.497371
40
0.138583
41
0.825
1
25
7
STANDARD
72
0
100
AcDbText
0
POINT
5
15d
100
AcDbEntity
8
DEFPOINTS
6
DOT2
62
11
100
AcDbPoint
10
2564.871489
20
346.396149
0
POINT
5
15e
100
AcDbEntity
8
DEFPOINTS
6
DOT2
62
11
100
AcDbPoint
10
2589.866457
20
345.467039
0
POINT
5
15f
100
AcDbEntity
8
DEFPOINTS
6
DOT2
62
11
100
AcDbPoint
10
2589.866457
20
333.467039
0
ENDBLK
5
160
100
AcDbEntity
8
1
100
AcDbBlockEnd
0
BLOCK
5
161
100
AcDbEntity
8
1
100
AcDbBlockBegin
2
*D10
70
65
10
0.000000
20
0.000000
3
*D
0
LINE
5
162
100
AcDbEntity
8
1
6
DOT2
62
11
100
AcDbLine
10
2566.142352
20
369.489102
11
2571.871489
21
365.467039
0
INSERT
5
163
100
AcDbEntity
8
1
6
DOT2
62
11
100
AcDbBlockReference
2
HALF
10
2566.142352
20
369.489102
41
0.116929
42
0.116929
43
0.116929
50
144.929746
0
LINE
5
164
100
AcDbEntity
8
1
6
DOT2
62
11
100
AcDbLine
10
2571.871489
20
365.467039
11
2566.142352
21
369.489102
0
TEXT
5
165
100
AcDbEntity
8
1
62
11
100
AcDbText
10
2562.445124
20
372.121751
40
0.138583
41
0.825
1
R7
50
-35.070254
7
STANDARD
72
0
100
AcDbText
0
POINT
5
166
100
AcDbEntity
8
DEFPOINTS
6
DOT2
62
11
100
AcDbPoint
10
2566.142352
20
369.489102
0
POINT
5
167
100
AcDbEntity
8
DEFPOINTS
6
DOT2
62
11
100
AcDbPoint
10
2571.871489
20
365.467039
0
ENDBLK
5
168
100
AcDbEntity
8
1
100
AcDbBlockEnd
0
BLOCK
5
169
100
AcDbEntity
8
1
100
AcDbBlockBegin
2
*D11
70
65
10
0.000000
20
0.000000
3
*D
0
LINE
5
16a
100
AcDbEntity
8
1
6
DOT2
62
11
100
AcDbLine
10
2569.557305
20
369.899257
11
2571.871489
21
365.467039
0
INSERT
5
16b
100
AcDbEntity
8
1
6
DOT2
62
11
100
AcDbBlockReference
2
HALF
10
2569.557305
20
369.899257
41
0.116929
42
0.116929
43
0.116929
50
117.570303
0
LINE
5
16c
100
AcDbEntity
8
1
6
DOT2
62
11
100
AcDbLine
10
2571.871489
20
365.467039
11
2569.557305
21
369.899257
0
TEXT
5
16d
100
AcDbEntity
8
1
62
11
100
AcDbText
10
2567.465692
20
373.970735
40
0.138583
41
0.825
1
R5
50
-62.429697
7
STANDARD
72
0
100
AcDbText
0
POINT
5
16e
100
AcDbEntity
8
DEFPOINTS
6
DOT2
62
11
100
AcDbPoint
10
2569.557305
20
369.899257
0
POINT
5
16f
100
AcDbEntity
8
DEFPOINTS
6
DOT2
62
11
100
AcDbPoint
10
2571.871489
20
365.467039
0
ENDBLK
5
170
100
AcDbEntity
8
1
100
AcDbBlockEnd
0
BLOCK
5
171
100
AcDbEntity
8
1
100
AcDbBlockBegin
2
*D12
70
65
10
0.000000
20
0.000000
3
*D
0
LINE
5
172
100
AcDbEntity
8
1
6
DOT2
62
11
100
AcDbLine
10
2583.366457
20
370.467039
11
2594.866457
21
370.467039
0
LINE
5
173
100
AcDbEntity
8
1
6
DOT2
62
11
100
AcDbLine
10
2583.366457
20
340.717039
11
2594.866457
21
340.717039
0
LINE
5
174
100
AcDbEntity
8
1
6
DOT2
62
11
100
AcDbLine
10
2592.866457
20
370.467039
11
2592.866457
21
340.717039
0
INSERT
5
175
100
AcDbEntity
8
1
6
DOT2
62
11
100
AcDbBlockReference
2
HALF
10
2592.866457
20
340.717039
41
0.116929
42
0.116929
43
0.116929
50
270.000000
0
INSERT
5
176
100
AcDbEntity
8
1
6
DOT2
62
11
100
AcDbBlockReference
2
HALF
10
2592.866457
20
370.467039
41
0.116929
42
0.116929
43
0.116929
50
90.000000
0
TEXT
5
177
100
AcDbEntity
8
1
62
11
100
AcDbText
10
2592.836125
20
355.232816
40
0.138583
41
0.825
1
29.8
50
90.000000
7
STANDARD
72
0
100
AcDbText
0
POINT
5
178
100
AcDbEntity
8
DEFPOINTS
6
DOT2
62
11
100
AcDbPoint
10
2581.866457
20
370.467039
0
POINT
5
179
100
AcDbEntity
8
DEFPOINTS
6
DOT2
62
11
100
AcDbPoint
10
2581.866457
20
340.717039
0
POINT
5
17a
100
AcDbEntity
8
DEFPOINTS
6
DOT2
62
11
100
AcDbPoint
10
2592.866457
20
340.717039
0
ENDBLK
5
17b
100
AcDbEntity
8
1
100
AcDbBlockEnd
0
BLOCK
5
17c
100
AcDbEntity
8
1
100
AcDbBlockBegin
2
*D13
70
65
10
0.000000
20
0.000000
3
*D
0
LINE
5
17d
100
AcDbEntity
8
1
6
DOT2
62
11
100
AcDbLine
10
2584.366457
20
372.467039
11
2597.866457
21
372.467039
0
LINE
5
17e
100
AcDbEntity
8
1
6
DOT2
62
11
100
AcDbLine
10
2584.366457
20
338.467039
11
2597.866457
21
338.467039
0
LINE
5
17f
100
AcDbEntity
8
1
6
DOT2
62
11
100
AcDbLine
10
2595.866457
20
372.467039
11
2595.866457
21
338.467039
0
INSERT
5
180
100
AcDbEntity
8
1
6
DOT2
62
11
100
AcDbBlockReference
2
HALF
10
2595.866457
20
338.467039
41
0.116929
42
0.116929
43
0.116929
50
270.000000
0
INSERT
5
181
100
AcDbEntity
8
1
6
DOT2
62
11
100
AcDbBlockReference
2
HALF
10
2595.866457
20
372.467039
41
0.116929
42
0.116929
43
0.116929
50
90.000000
0
TEXT
5
182
100
AcDbEntity
8
1
62
11
100
AcDbText
10
2595.836125
20
354.533302
40
0.138583
41
0.825
1
34
50
90.000000
7
STANDARD
72
0
100
AcDbText
0
POINT
5
183
100
AcDbEntity
8
DEFPOINTS
6
DOT2
62
11
100
AcDbPoint
10
2582.866457
20
372.467039
0
POINT
5
184
100
AcDbEntity
8
DEFPOINTS
6
DOT2
62
11
100
AcDbPoint
10
2582.866457
20
338.467039
0
POINT
5
185
100
AcDbEntity
8
DEFPOINTS
6
DOT2
62
11
100
AcDbPoint
10
2595.866457
20
338.467039
0
ENDBLK
5
186
100
AcDbEntity
8
1
100
AcDbBlockEnd
0
BLOCK
5
187
100
AcDbEntity
8
1
100
AcDbBlockBegin
2
*D14
70
65
10
0.000000
20
0.000000
3
*D
0
LINE
5
188
100
AcDbEntity
8
1
6
DOT2
62
11
100
AcDbLine
10
2585.369908
20
368.325053
11
2581.707156
21
364.232452
0
LINE
5
189
100
AcDbEntity
8
1
6
DOT2
62
11
100
AcDbLine
10
2581.707156
20
364.232452
11
2575.339046
21
364.232452
0
INSERT
5
18a
100
AcDbEntity
8
1
6
DOT2
62
11
100
AcDbBlockReference
2
HALF
10
2585.369908
20
368.325053
41
0.116929
42
0.116929
43
0.116929
50
48.172438
0
LINE
5
18b
100
AcDbEntity
8
1
6
DOT2
62
11
100
AcDbLine
10
2582.782452
20
365.530721
11
2582.955681
21
365.530721
0
LINE
5
18c
100
AcDbEntity
8
1
6
DOT2
62
11
100
AcDbLine
10
2582.869067
20
365.444106
11
2582.869067
21
365.617335
0
TEXT
5
18d
100
AcDbEntity
8
1
62
11
100
AcDbText
10
2584.707509
20
364.262784
40
0.138583
41
0.825
1
R0.8
7
STANDARD
72
0
100
AcDbText
0
POINT
5
18e
100
AcDbEntity
8
DEFPOINTS
6
DOT2
62
11
100
AcDbPoint
10
2585.369908
20
368.325053
0
POINT
5
18f
100
AcDbEntity
8
DEFPOINTS
6
DOT2
62
11
100
AcDbPoint
10
2582.869067
20
365.530721
0
ENDBLK
5
190
100
AcDbEntity
8
1
100
AcDbBlockEnd
0
BLOCK
5
191
100
AcDbEntity
8
1
100
AcDbBlockBegin
2
*D15
70
65
10
0.000000
20
0.000000
3
*D
0
LINE
5
192
100
AcDbEntity
8
1
6
DOT2
62
11
100
AcDbLine
10
2635.788939
20
337.487481
11
2635.788939
21
327.987481
0
LINE
5
193
100
AcDbEntity
8
1
6
DOT2
62
11
100
AcDbLine
10
2626.282043
20
353.487481
11
2626.282043
21
327.987481
0
LINE
5
194
100
AcDbEntity
8
1
6
DOT2
62
11
100
AcDbLine
10
2635.788939
20
329.987481
11
2626.282043
21
329.987481
0
INSERT
5
195
100
AcDbEntity
8
1
6
DOT2
62
11
100
AcDbBlockReference
2
HALF
10
2635.788939
20
329.987481
41
0.116929
42
0.116929
43
0.116929
0
INSERT
5
196
100
AcDbEntity
8
1
6
DOT2
62
11
100
AcDbBlockReference
2
HALF
10
2626.282043
20
329.987481
41
0.116929
42
0.116929
43
0.116929
50
180.000000
0
TEXT
5
197
100
AcDbEntity
8
1
62
11
100
AcDbText
10
2629.926629
20
330.017814
40
0.138583
41
0.825
1
1.9
7
STANDARD
72
0
100
AcDbText
0
POINT
5
198
100
AcDbEntity
8
DEFPOINTS
6
DOT2
62
11
100
AcDbPoint
10
2635.788939
20
338.987481
0
POINT
5
199
100
AcDbEntity
8
DEFPOINTS
6
DOT2
62
11
100
AcDbPoint
10
2626.282043
20
354.987481
0
POINT
5
19a
100
AcDbEntity
8
DEFPOINTS
6
DOT2
62
11
100
AcDbPoint
10
2626.282043
20
329.987481
0
ENDBLK
5
19b
100
AcDbEntity
8
1
100
AcDbBlockEnd
0
BLOCK
5
19c
100
AcDbEntity
8
1
100
AcDbBlockBegin
2
*D16
70
65
10
0.000000
20
0.000000
3
*D
0
LINE
5
19d
100
AcDbEntity
8
1
6
DOT2
62
11
100
AcDbLine
10
2635.788939
20
337.487481
11
2635.788939
21
333.987481
0
LINE
5
19e
100
AcDbEntity
8
1
6
DOT2
62
11
100
AcDbLine
10
2634.788939
20
334.487481
11
2634.788939
21
333.987481
0
LINE
5
19f
100
AcDbEntity
8
1
6
DOT2
62
11
100
AcDbLine
10
2634.788939
20
335.987481
11
2632.215858
21
335.987481
0
LINE
5
1a0
100
AcDbEntity
8
1
6
DOT2
62
11
100
AcDbLine
10
2635.788939
20
335.987481
11
2638.362020
21
335.987481
0
LINE
5
1a1
100
AcDbEntity
8
1
6
DOT2
62
11
100
AcDbLine
10
2635.788939
20
335.987481
11
2634.788939
21
335.987481
0
INSERT
5
1a2
100
AcDbEntity
8
1
6
DOT2
62
11
100
AcDbBlockReference
2
HALF
10
2635.788939
20
335.987481
41
0.116929
42
0.116929
43
0.116929
50
180.000000
0
INSERT
5
1a3
100
AcDbEntity
8
1
6
DOT2
62
11
100
AcDbBlockReference
2
HALF
10
2634.788939
20
335.987481
41
0.116929
42
0.116929
43
0.116929
0
TEXT
5
1a4
100
AcDbEntity
8
1
62
11
100
AcDbText
10
2640.776069
20
336.017814
40
0.138583
41
0.825
1
0.2
7
STANDARD
72
0
100
AcDbText
0
POINT
5
1a5
100
AcDbEntity
8
DEFPOINTS
6
DOT2
62
11
100
AcDbPoint
10
2635.788939
20
338.987481
0
POINT
5
1a6
100
AcDbEntity
8
DEFPOINTS
6
DOT2
62
11
100
AcDbPoint
10
2634.788939
20
335.987481
0
POINT
5
1a7
100
AcDbEntity
8
DEFPOINTS
6
DOT2
62
11
100
AcDbPoint
10
2634.788939
20
335.987481
0
ENDBLK
5
1a8
100
AcDbEntity
8
1
100
AcDbBlockEnd
0
BLOCK
5
1a9
100
AcDbEntity
8
1
100
AcDbBlockBegin
2
*D17
70
65
10
0.000000
20
0.000000
3
*D
0
LINE
5
1aa
100
AcDbEntity
8
1
6
DOT2
62
11
100
AcDbLine
10
2635.788939
20
337.487481
11
2635.788939
21
330.987481
0
LINE
5
1ab
100
AcDbEntity
8
1
6
DOT2
62
11
100
AcDbLine
10
2628.788939
20
340.987481
11
2628.788939
21
330.987481
0
LINE
5
1ac
100
AcDbEntity
8
1
6
DOT2
62
11
100
AcDbLine
10
2635.788939
20
332.987481
11
2628.788939
21
332.987481
0
INSERT
5
1ad
100
AcDbEntity
8
1
6
DOT2
62
11
100
AcDbBlockReference
2
HALF
10
2635.788939
20
332.987481
41
0.116929
42
0.116929
43
0.116929
0
INSERT
5
1ae
100
AcDbEntity
8
1
6
DOT2
62
11
100
AcDbBlockReference
2
HALF
10
2628.788939
20
332.987481
41
0.116929
42
0.116929
43
0.116929
50
180.000000
0
TEXT
5
1af
100
AcDbEntity
8
1
62
11
100
AcDbText
10
2631.671615
20
333.017814
40
0.138583
41
0.825
1
1.4
7
STANDARD
72
0
100
AcDbText
0
POINT
5
1b0
100
AcDbEntity
8
DEFPOINTS
6
DOT2
62
11
100
AcDbPoint
10
2635.788939
20
338.987481
0
POINT
5
1b1
100
AcDbEntity
8
DEFPOINTS
6
DOT2
62
11
100
AcDbPoint
10
2628.788939
20
342.487481
0
POINT
5
1b2
100
AcDbEntity
8
DEFPOINTS
6
DOT2
62
11
100
AcDbPoint
10
2628.788939
20
332.987481
0
ENDBLK
5
1b3
100
AcDbEntity
8
1
100
AcDbBlockEnd
0
BLOCK
5
1b4
100
AcDbEntity
8
1
100
AcDbBlockBegin
2
*D18
70
65
10
0.000000
20
0.000000
3
*D
0
LINE
5
1b5
100
AcDbEntity
8
1
6
DOT2
62
11
100
AcDbLine
10
2634.115914
20
371.727101
11
2632.555657
21
373.441745
0
LINE
5
1b6
100
AcDbEntity
8
1
6
DOT2
62
11
100
AcDbLine
10
2632.555657
20
373.441745
11
2626.360776
21
373.441745
0
INSERT
5
1b7
100
AcDbEntity
8
1
6
DOT2
62
11
100
AcDbBlockReference
2
HALF
10
2634.115914
20
371.727101
41
0.116929
42
0.116929
43
0.116929
50
312.300939
0
LINE
5
1b8
100
AcDbEntity
8
1
6
DOT2
62
11
100
AcDbLine
10
2634.702325
20
370.987481
11
2634.875553
21
370.987481
0
LINE
5
1b9
100
AcDbEntity
8
1
6
DOT2
62
11
100
AcDbLine
10
2634.788939
20
370.900867
11
2634.788939
21
371.074095
0
TEXT
5
1ba
100
AcDbEntity
8
1
62
11
100
AcDbText
10
2629.492222
20
373.472077
40
0.138583
41
0.825
1
R1
7
STANDARD
72
0
100
AcDbText
0
POINT
5
1bb
100
AcDbEntity
8
DEFPOINTS
6
DOT2
62
11
100
AcDbPoint
10
2634.115914
20
371.727101
0
POINT
5
1bc
100
AcDbEntity
8
DEFPOINTS
6
DOT2
62
11
100
AcDbPoint
10
2634.788939
20
370.987481
0
ENDBLK
5
1bd
100
AcDbEntity
8
1
100
AcDbBlockEnd
0
BLOCK
5
1be
100
AcDbEntity
8
1
100
AcDbBlockBegin
2
*D19
70
65
10
0.000000
20
0.000000
3
*D
0
LINE
5
1bf
100
AcDbEntity
8
1
6
DOT2
62
11
100
AcDbLine
10
2637.288939
20
368.487481
11
2646.788939
21
368.487481
0
LINE
5
1c0
100
AcDbEntity
8
1
6
DOT2
62
11
100
AcDbLine
10
2637.288939
20
341.487481
11
2646.788939
21
341.487481
0
LINE
5
1c1
100
AcDbEntity
8
1
6
DOT2
62
11
100
AcDbLine
10
2644.788939
20
368.487481
11
2644.788939
21
341.487481
0
INSERT
5
1c2
100
AcDbEntity
8
1
6
DOT2
62
11
100
AcDbBlockReference
2
HALF
10
2644.788939
20
341.487481
41
0.116929
42
0.116929
43
0.116929
50
270.000000
0
INSERT
5
1c3
100
AcDbEntity
8
1
6
DOT2
62
11
100
AcDbBlockReference
2
HALF
10
2644.788939
20
368.487481
41
0.116929
42
0.116929
43
0.116929
50
90.000000
0
TEXT
5
1c4
100
AcDbEntity
8
1
62
11
100
AcDbText
10
2644.758607
20
354.475826
40
0.138583
41
0.825
1
5.4
50
90.000000
7
STANDARD
72
0
100
AcDbText
0
POINT
5
1c5
100
AcDbEntity
8
DEFPOINTS
6
DOT2
62
11
100
AcDbPoint
10
2635.788939
20
368.487481
0
POINT
5
1c6
100
AcDbEntity
8
DEFPOINTS
6
DOT2
62
11
100
AcDbPoint
10
2635.788939
20
341.487481
0
POINT
5
1c7
100
AcDbEntity
8
DEFPOINTS
6
DOT2
62
11
100
AcDbPoint
10
2644.788939
20
341.487481
0
ENDBLK
5
1c8
100
AcDbEntity
8
1
100
AcDbBlockEnd
0
BLOCK
5
1c9
100
AcDbEntity
8
1
100
AcDbBlockBegin
2
*D20
70
65
10
0.000000
20
0.000000
3
*D
0
LINE
5
1ca
100
AcDbEntity
8
1
6
DOT2
62
11
100
AcDbLine
10
2637.288939
20
360.479032
11
2643.788939
21
360.479032
0
LINE
5
1cb
100
AcDbEntity
8
1
6
DOT2
62
11
100
AcDbLine
10
2637.288939
20
349.479032
11
2643.788939
21
349.479032
0
LINE
5
1cc
100
AcDbEntity
8
1
6
DOT2
62
11
100
AcDbLine
10
2641.788939
20
360.479032
11
2641.788939
21
349.479032
0
INSERT
5
1cd
100
AcDbEntity
8
1
6
DOT2
62
11
100
AcDbBlockReference
2
HALF
10
2641.788939
20
349.479032
41
0.116929
42
0.116929
43
0.116929
50
270.000000
0
INSERT
5
1ce
100
AcDbEntity
8
1
6
DOT2
62
11
100
AcDbBlockReference
2
HALF
10
2641.788939
20
360.479032
41
0.116929
42
0.116929
43
0.116929
50
90.000000
0
TEXT
5
1cf
100
AcDbEntity
8
1
62
11
100
AcDbText
10
2641.758607
20
354.561000
40
0.138583
41
0.825
1
%%c2.2
50
90.000000
7
STANDARD
72
0
100
AcDbText
0
POINT
5
1d0
100
AcDbEntity
8
DEFPOINTS
6
DOT2
62
11
100
AcDbPoint
10
2635.788939
20
360.479032
0
POINT
5
1d1
100
AcDbEntity
8
DEFPOINTS
6
DOT2
62
11
100
AcDbPoint
10
2635.788939
20
349.479032
0
POINT
5
1d2
100
AcDbEntity
8
DEFPOINTS
6
DOT2
62
11
100
AcDbPoint
10
2641.788939
20
349.479032
0
ENDBLK
5
1d3
100
AcDbEntity
8
1
100
AcDbBlockEnd
0
BLOCK
5
1d4
100
AcDbEntity
8
1
100
AcDbBlockBegin
2
*D21
70
65
10
0.000000
20
0.000000
3
*D
0
LINE
5
1d5
100
AcDbEntity
8
1
6
DOT2
62
11
100
AcDbLine
10
2635.458210
20
337.967039
11
2635.458210
21
328.467039
0
LINE
5
1d6
100
AcDbEntity
8
1
6
DOT2
62
11
100
AcDbLine
10
2625.951314
20
353.967039
11
2625.951314
21
328.467039
0
LINE
5
1d7
100
AcDbEntity
8
1
6
DOT2
62
11
100
AcDbLine
10
2635.458210
20
330.467039
11
2625.951314
21
330.467039
0
INSERT
5
1d8
100
AcDbEntity
8
1
6
DOT2
62
11
100
AcDbBlockReference
2
HALF
10
2635.458210
20
330.467039
41
0.116929
42
0.116929
43
0.116929
0
INSERT
5
1d9
100
AcDbEntity
8
1
6
DOT2
62
11
100
AcDbBlockReference
2
HALF
10
2625.951314
20
330.467039
41
0.116929
42
0.116929
43
0.116929
50
180.000000
0
TEXT
5
1da
100
AcDbEntity
8
1
62
11
100
AcDbText
10
2629.595899
20
330.497371
40
0.138583
41
0.825
1
1.9
7
STANDARD
72
0
100
AcDbText
0
POINT
5
1db
100
AcDbEntity
8
DEFPOINTS
6
DOT2
62
11
100
AcDbPoint
10
2635.458210
20
339.467039
0
POINT
5
1dc
100
AcDbEntity
8
DEFPOINTS
6
DOT2
62
11
100
AcDbPoint
10
2625.951314
20
355.467039
0
POINT
5
1dd
100
AcDbEntity
8
DEFPOINTS
6
DOT2
62
11
100
AcDbPoint
10
2625.951314
20
330.467039
0
ENDBLK
5
1de
100
AcDbEntity
8
1
100
AcDbBlockEnd
0
BLOCK
5
1df
100
AcDbEntity
8
1
100
AcDbBlockBegin
2
*D22
70
65
10
0.000000
20
0.000000
3
*D
0
LINE
5
1e0
100
AcDbEntity
8
1
6
DOT2
62
11
100
AcDbLine
10
2635.458210
20
337.967039
11
2635.458210
21
334.467039
0
LINE
5
1e1
100
AcDbEntity
8
1
6
DOT2
62
11
100
AcDbLine
10
2634.458210
20
334.967039
11
2634.458210
21
334.467039
0
LINE
5
1e2
100
AcDbEntity
8
1
6
DOT2
62
11
100
AcDbLine
10
2634.458210
20
336.467039
11
2631.885129
21
336.467039
0
LINE
5
1e3
100
AcDbEntity
8
1
6
DOT2
62
11
100
AcDbLine
10
2635.458210
20
336.467039
11
2638.031290
21
336.467039
0
LINE
5
1e4
100
AcDbEntity
8
1
6
DOT2
62
11
100
AcDbLine
10
2635.458210
20
336.467039
11
2634.458210
21
336.467039
0
INSERT
5
1e5
100
AcDbEntity
8
1
6
DOT2
62
11
100
AcDbBlockReference
2
HALF
10
2635.458210
20
336.467039
41
0.116929
42
0.116929
43
0.116929
50
180.000000
0
INSERT
5
1e6
100
AcDbEntity
8
1
6
DOT2
62
11
100
AcDbBlockReference
2
HALF
10
2634.458210
20
336.467039
41
0.116929
42
0.116929
43
0.116929
0
TEXT
5
1e7
100
AcDbEntity
8
1
62
11
100
AcDbText
10
2640.445340
20
336.497371
40
0.138583
41
0.825
1
0.2
7
STANDARD
72
0
100
AcDbText
0
POINT
5
1e8
100
AcDbEntity
8
DEFPOINTS
6
DOT2
62
11
100
AcDbPoint
10
2635.458210
20
339.467039
0
POINT
5
1e9
100
AcDbEntity
8
DEFPOINTS
6
DOT2
62
11
100
AcDbPoint
10
2634.458210
20
336.467039
0
POINT
5
1ea
100
AcDbEntity
8
DEFPOINTS
6
DOT2
62
11
100
AcDbPoint
10
2634.458210
20
336.467039
0
ENDBLK
5
1eb
100
AcDbEntity
8
1
100
AcDbBlockEnd
0
BLOCK
5
1ec
100
AcDbEntity
8
1
100
AcDbBlockBegin
2
*D23
70
65
10
0.000000
20
0.000000
3
*D
0
LINE
5
1ed
100
AcDbEntity
8
1
6
DOT2
62
11
100
AcDbLine
10
2635.458210
20
337.967039
11
2635.458210
21
331.467039
0
LINE
5
1ee
100
AcDbEntity
8
1
6
DOT2
62
11
100
AcDbLine
10
2628.458210
20
341.467039
11
2628.458210
21
331.467039
0
LINE
5
1ef
100
AcDbEntity
8
1
6
DOT2
62
11
100
AcDbLine
10
2635.458210
20
333.467039
11
2628.458210
21
333.467039
0
INSERT
5
1f0
100
AcDbEntity
8
1
6
DOT2
62
11
100
AcDbBlockReference
2
HALF
10
2635.458210
20
333.467039
41
0.116929
42
0.116929
43
0.116929
0
INSERT
5
1f1
100
AcDbEntity
8
1
6
DOT2
62
11
100
AcDbBlockReference
2
HALF
10
2628.458210
20
333.467039
41
0.116929
42
0.116929
43
0.116929
50
180.000000
0
TEXT
5
1f2
100
AcDbEntity
8
1
62
11
100
AcDbText
10
2631.340886
20
333.497371
40
0.138583
41
0.825
1
1.4
7
STANDARD
72
0
100
AcDbText
0
POINT
5
1f3
100
AcDbEntity
8
DEFPOINTS
6
DOT2
62
11
100
AcDbPoint
10
2635.458210
20
339.467039
0
POINT
5
1f4
100
AcDbEntity
8
DEFPOINTS
6
DOT2
62
11
100
AcDbPoint
10
2628.458210
20
342.967039
0
POINT
5
1f5
100
AcDbEntity
8
DEFPOINTS
6
DOT2
62
11
100
AcDbPoint
10
2628.458210
20
333.467039
0
ENDBLK
5
1f6
100
AcDbEntity
8
1
100
AcDbBlockEnd
0
BLOCK
5
1f7
100
AcDbEntity
8
1
100
AcDbBlockBegin
2
*D24
70
65
10
0.000000
20
0.000000
3
*D
0
LINE
5
1f8
100
AcDbEntity
8
1
6
DOT2
62
11
100
AcDbLine
10
2633.785185
20
372.206659
11
2632.224928
21
373.921302
0
LINE
5
1f9
100
AcDbEntity
8
1
6
DOT2
62
11
100
AcDbLine
10
2632.224928
20
373.921302
11
2626.030046
21
373.921302
0
INSERT
5
1fa
100
AcDbEntity
8
1
6
DOT2
62
11
100
AcDbBlockReference
2
HALF
10
2633.785185
20
372.206659
41
0.116929
42
0.116929
43
0.116929
50
312.300939
0
LINE
5
1fb
100
AcDbEntity
8
1
6
DOT2
62
11
100
AcDbLine
10
2634.371596
20
371.467039
11
2634.544824
21
371.467039
0
LINE
5
1fc
100
AcDbEntity
8
1
6
DOT2
62
11
100
AcDbLine
10
2634.458210
20
371.380424
11
2634.458210
21
371.553653
0
TEXT
5
1fd
100
AcDbEntity
8
1
62
11
100
AcDbText
10
2629.161493
20
373.951634
40
0.138583
41
0.825
1
R1
7
STANDARD
72
0
100
AcDbText
0
POINT
5
1fe
100
AcDbEntity
8
DEFPOINTS
6
DOT2
62
11
100
AcDbPoint
10
2633.785185
20
372.206659
0
POINT
5
1ff
100
AcDbEntity
8
DEFPOINTS
6
DOT2
62
11
100
AcDbPoint
10
2634.458210
20
371.467039
0
ENDBLK
5
200
100
AcDbEntity
8
1
100
AcDbBlockEnd
0
BLOCK
5
201
100
AcDbEntity
8
1
100
AcDbBlockBegin
2
*D25
70
65
10
0.000000
20
0.000000
3
*D
0
LINE
5
202
100
AcDbEntity
8
1
6
DOT2
62
11
100
AcDbLine
10
2636.958210
20
368.967039
11
2646.458210
21
368.967039
0
LINE
5
203
100
AcDbEntity
8
1
6
DOT2
62
11
100
AcDbLine
10
2636.958210
20
341.967039
11
2646.458210
21
341.967039
0
LINE
5
204
100
AcDbEntity
8
1
6
DOT2
62
11
100
AcDbLine
10
2644.458210
20
368.967039
11
2644.458210
21
341.967039
0
INSERT
5
205
100
AcDbEntity
8
1
6
DOT2
62
11
100
AcDbBlockReference
2
HALF
10
2644.458210
20
341.967039
41
0.116929
42
0.116929
43
0.116929
50
270.000000
0
INSERT
5
206
100
AcDbEntity
8
1
6
DOT2
62
11
100
AcDbBlockReference
2
HALF
10
2644.458210
20
368.967039
41
0.116929
42
0.116929
43
0.116929
50
90.000000
0
TEXT
5
207
100
AcDbEntity
8
1
62
11
100
AcDbText
10
2644.427877
20
354.955384
40
0.138583
41
0.825
1
5.4
50
90.000000
7
STANDARD
72
0
100
AcDbText
0
POINT
5
208
100
AcDbEntity
8
DEFPOINTS
6
DOT2
62
11
100
AcDbPoint
10
2635.458210
20
368.967039
0
POINT
5
209
100
AcDbEntity
8
DEFPOINTS
6
DOT2
62
11
100
AcDbPoint
10
2635.458210
20
341.967039
0
POINT
5
20a
100
AcDbEntity
8
DEFPOINTS
6
DOT2
62
11
100
AcDbPoint
10
2644.458210
20
341.967039
0
ENDBLK
5
20b
100
AcDbEntity
8
1
100
AcDbBlockEnd
0
BLOCK
5
20c
100
AcDbEntity
8
1
100
AcDbBlockBegin
2
*D26
70
65
10
0.000000
20
0.000000
3
*D
0
LINE
5
20d
100
AcDbEntity
8
1
6
DOT2
62
11
100
AcDbLine
10
2636.958210
20
360.958590
11
2643.458210
21
360.958590
0
LINE
5
20e
100
AcDbEntity
8
1
6
DOT2
62
11
100
AcDbLine
10
2636.958210
20
349.958590
11
2643.458210
21
349.958590
0
LINE
5
20f
100
AcDbEntity
8
1
6
DOT2
62
11
100
AcDbLine
10
2641.458210
20
360.958590
11
2641.458210
21
349.958590
0
INSERT
5
210
100
AcDbEntity
8
1
6
DOT2
62
11
100
AcDbBlockReference
2
HALF
10
2641.458210
20
349.958590
41
0.116929
42
0.116929
43
0.116929
50
270.000000
0
INSERT
5
211
100
AcDbEntity
8
1
6
DOT2
62
11
100
AcDbBlockReference
2
HALF
10
2641.458210
20
360.958590
41
0.116929
42
0.116929
43
0.116929
50
90.000000
0
TEXT
5
212
100
AcDbEntity
8
1
62
11
100
AcDbText
10
2641.427877
20
355.040557
40
0.138583
41
0.825
1
%%c2.2
50
90.000000
7
STANDARD
72
0
100
AcDbText
0
POINT
5
213
100
AcDbEntity
8
DEFPOINTS
6
DOT2
62
11
100
AcDbPoint
10
2635.458210
20
360.958590
0
POINT
5
214
100
AcDbEntity
8
DEFPOINTS
6
DOT2
62
11
100
AcDbPoint
10
2635.458210
20
349.958590
0
POINT
5
215
100
AcDbEntity
8
DEFPOINTS
6
DOT2
62
11
100
AcDbPoint
10
2641.458210
20
349.958590
0
ENDBLK
5
216
100
AcDbEntity
8
1
100
AcDbBlockEnd
0
BLOCK
5
217
100
AcDbEntity
8
1
100
AcDbBlockBegin
2
*D27
70
65
10
0.000000
20
0.000000
3
*D
0
LINE
5
218
100
AcDbEntity
8
1
6
DOT2
62
11
100
AcDbLine
10
2611.688186
20
508.304092
11
2611.688186
21
494.874981
0
LINE
5
219
100
AcDbEntity
8
1
6
DOT2
62
11
100
AcDbLine
10
2636.683155
20
507.374981
11
2636.683155
21
494.874981
0
LINE
5
21a
100
AcDbEntity
8
1
6
DOT2
62
11
100
AcDbLine
10
2611.688186
20
496.874981
11
2636.683155
21
496.874981
0
INSERT
5
21b
100
AcDbEntity
8
1
6
DOT2
62
11
100
AcDbBlockReference
2
HALF
10
2611.688186
20
496.874981
41
0.116929
42
0.116929
43
0.116929
50
180.000000
0
INSERT
5
21c
100
AcDbEntity
8
1
6
DOT2
62
11
100
AcDbBlockReference
2
HALF
10
2636.683155
20
496.874981
41
0.116929
42
0.116929
43
0.116929
0
TEXT
5
21d
100
AcDbEntity
8
1
62
11
100
AcDbText
10
2624.385863
20
496.905314
40
0.138583
41
0.825
1
25
7
STANDARD
72
0
100
AcDbText
0
POINT
5
21e
100
AcDbEntity
8
DEFPOINTS
6
DOT2
62
11
100
AcDbPoint
10
2611.688186
20
509.804092
0
POINT
5
21f
100
AcDbEntity
8
DEFPOINTS
6
DOT2
62
11
100
AcDbPoint
10
2636.683155
20
508.874981
0
POINT
5
220
100
AcDbEntity
8
DEFPOINTS
6
DOT2
62
11
100
AcDbPoint
10
2636.683155
20
496.874981
0
ENDBLK
5
221
100
AcDbEntity
8
1
100
AcDbBlockEnd
0
BLOCK
5
222
100
AcDbEntity
8
1
100
AcDbBlockBegin
2
*D28
70
65
10
0.000000
20
0.000000
3
*D
0
LINE
5
223
100
AcDbEntity
8
1
6
DOT2
62
11
100
AcDbLine
10
2613.688186
20
511.874981
11
2613.688186
21
497.874981
0
LINE
5
224
100
AcDbEntity
8
1
6
DOT2
62
11
100
AcDbLine
10
2634.683155
20
511.874981
11
2634.683155
21
497.874981
0
LINE
5
225
100
AcDbEntity
8
1
6
DOT2
62
11
100
AcDbLine
10
2613.688186
20
499.874981
11
2634.683155
21
499.874981
0
INSERT
5
226
100
AcDbEntity
8
1
6
DOT2
62
11
100
AcDbBlockReference
2
HALF
10
2613.688186
20
499.874981
41
0.116929
42
0.116929
43
0.116929
50
180.000000
0
INSERT
5
227
100
AcDbEntity
8
1
6
DOT2
62
11
100
AcDbBlockReference
2
HALF
10
2634.683155
20
499.874981
41
0.116929
42
0.116929
43
0.116929
0
TEXT
5
228
100
AcDbEntity
8
1
62
11
100
AcDbText
10
2624.045684
20
499.905314
40
0.138583
41
0.825
1
21
7
STANDARD
72
0
100
AcDbText
0
POINT
5
229
100
AcDbEntity
8
DEFPOINTS
6
DOT2
62
11
100
AcDbPoint
10
2613.688186
20
513.374981
0
POINT
5
22a
100
AcDbEntity
8
DEFPOINTS
6
DOT2
62
11
100
AcDbPoint
10
2634.683155
20
513.374981
0
POINT
5
22b
100
AcDbEntity
8
DEFPOINTS
6
DOT2
62
11
100
AcDbPoint
10
2634.683155
20
499.874981
0
ENDBLK
5
22c
100
AcDbEntity
8
1
100
AcDbBlockEnd
0
BLOCK
5
22d
100
AcDbEntity
8
1
100
AcDbBlockBegin
2
*D29
70
65
10
0.000000
20
0.000000
3
*D
0
LINE
5
22e
100
AcDbEntity
8
1
6
DOT2
62
11
100
AcDbLine
10
2612.959050
20
532.897044
11
2618.688186
21
528.874981
0
INSERT
5
22f
100
AcDbEntity
8
1
6
DOT2
62
11
100
AcDbBlockReference
2
HALF
10
2612.959050
20
532.897044
41
0.116929
42
0.116929
43
0.116929
50
144.929746
0
LINE
5
230
100
AcDbEntity
8
1
6
DOT2
62
11
100
AcDbLine
10
2618.688186
20
528.874981
11
2612.959050
21
532.897044
0
TEXT
5
231
100
AcDbEntity
8
1
62
11
100
AcDbText
10
2609.261822
20
535.529694
40
0.138583
41
0.825
1
R7
50
-35.070254
7
STANDARD
72
0
100
AcDbText
0
POINT
5
232
100
AcDbEntity
8
DEFPOINTS
6
DOT2
62
11
100
AcDbPoint
10
2612.959050
20
532.897044
0
POINT
5
233
100
AcDbEntity
8
DEFPOINTS
6
DOT2
62
11
100
AcDbPoint
10
2618.688186
20
528.874981
0
ENDBLK
5
234
100
AcDbEntity
8
1
100
AcDbBlockEnd
0
BLOCK
5
235
100
AcDbEntity
8
1
100
AcDbBlockBegin
2
*D30
70
65
10
0.000000
20
0.000000
3
*D
0
LINE
5
236
100
AcDbEntity
8
1
6
DOT2
62
11
100
AcDbLine
10
2616.374003
20
533.307199
11
2618.688186
21
528.874981
0
INSERT
5
237
100
AcDbEntity
8
1
6
DOT2
62
11
100
AcDbBlockReference
2
HALF
10
2616.374003
20
533.307199
41
0.116929
42
0.116929
43
0.116929
50
117.570303
0
LINE
5
238
100
AcDbEntity
8
1
6
DOT2
62
11
100
AcDbLine
10
2618.688186
20
528.874981
11
2616.374003
21
533.307199
0
TEXT
5
239
100
AcDbEntity
8
1
62
11
100
AcDbText
10
2614.282390
20
537.378678
40
0.138583
41
0.825
1
R5
50
-62.429697
7
STANDARD
72
0
100
AcDbText
0
POINT
5
23a
100
AcDbEntity
8
DEFPOINTS
6
DOT2
62
11
100
AcDbPoint
10
2616.374003
20
533.307199
0
POINT
5
23b
100
AcDbEntity
8
DEFPOINTS
6
DOT2
62
11
100
AcDbPoint
10
2618.688186
20
528.874981
0
ENDBLK
5
23c
100
AcDbEntity
8
1
100
AcDbBlockEnd
0
BLOCK
5
23d
100
AcDbEntity
8
1
100
AcDbBlockBegin
2
*D31
70
65
10
0.000000
20
0.000000
3
*D
0
LINE
5
23e
100
AcDbEntity
8
1
6
DOT2
62
11
100
AcDbLine
10
2630.183155
20
533.874981
11
2641.683155
21
533.874981
0
LINE
5
23f
100
AcDbEntity
8
1
6
DOT2
62
11
100
AcDbLine
10
2630.183155
20
504.124981
11
2641.683155
21
504.124981
0
LINE
5
240
100
AcDbEntity
8
1
6
DOT2
62
11
100
AcDbLine
10
2639.683155
20
533.874981
11
2639.683155
21
504.124981
0
INSERT
5
241
100
AcDbEntity
8
1
6
DOT2
62
11
100
AcDbBlockReference
2
HALF
10
2639.683155
20
504.124981
41
0.116929
42
0.116929
43
0.116929
50
270.000000
0
INSERT
5
242
100
AcDbEntity
8
1
6
DOT2
62
11
100
AcDbBlockReference
2
HALF
10
2639.683155
20
533.874981
41
0.116929
42
0.116929
43
0.116929
50
90.000000
0
TEXT
5
243
100
AcDbEntity
8
1
62
11
100
AcDbText
10
2639.652823
20
518.640759
40
0.138583
41
0.825
1
29.8
50
90.000000
7
STANDARD
72
0
100
AcDbText
0
POINT
5
244
100
AcDbEntity
8
DEFPOINTS
6
DOT2
62
11
100
AcDbPoint
10
2628.683155
20
533.874981
0
POINT
5
245
100
AcDbEntity
8
DEFPOINTS
6
DOT2
62
11
100
AcDbPoint
10
2628.683155
20
504.124981
0
POINT
5
246
100
AcDbEntity
8
DEFPOINTS
6
DOT2
62
11
100
AcDbPoint
10
2639.683155
20
504.124981
0
ENDBLK
5
247
100
AcDbEntity
8
1
100
AcDbBlockEnd
0
BLOCK
5
248
100
AcDbEntity
8
1
100
AcDbBlockBegin
2
*D32
70
65
10
0.000000
20
0.000000
3
*D
0
LINE
5
249
100
AcDbEntity
8
1
6
DOT2
62
11
100
AcDbLine
10
2631.183155
20
535.874981
11
2644.683155
21
535.874981
0
LINE
5
24a
100
AcDbEntity
8
1
6
DOT2
62
11
100
AcDbLine
10
2631.183155
20
501.874981
11
2644.683155
21
501.874981
0
LINE
5
24b
100
AcDbEntity
8
1
6
DOT2
62
11
100
AcDbLine
10
2642.683155
20
535.874981
11
2642.683155
21
501.874981
0
INSERT
5
24c
100
AcDbEntity
8
1
6
DOT2
62
11
100
AcDbBlockReference
2
HALF
10
2642.683155
20
501.874981
41
0.116929
42
0.116929
43
0.116929
50
270.000000
0
INSERT
5
24d
100
AcDbEntity
8
1
6
DOT2
62
11
100
AcDbBlockReference
2
HALF
10
2642.683155
20
535.874981
41
0.116929
42
0.116929
43
0.116929
50
90.000000
0
TEXT
5
24e
100
AcDbEntity
8
1
62
11
100
AcDbText
10
2642.652823
20
517.941245
40
0.138583
41
0.825
1
34
50
90.000000
7
STANDARD
72
0
100
AcDbText
0
POINT
5
24f
100
AcDbEntity
8
DEFPOINTS
6
DOT2
62
11
100
AcDbPoint
10
2629.683155
20
535.874981
0
POINT
5
250
100
AcDbEntity
8
DEFPOINTS
6
DOT2
62
11
100
AcDbPoint
10
2629.683155
20
501.874981
0
POINT
5
251
100
AcDbEntity
8
DEFPOINTS
6
DOT2
62
11
100
AcDbPoint
10
2642.683155
20
501.874981
0
ENDBLK
5
252
100
AcDbEntity
8
1
100
AcDbBlockEnd
0
BLOCK
5
253
100
AcDbEntity
8
1
100
AcDbBlockBegin
2
*D33
70
65
10
0.000000
20
0.000000
3
*D
0
LINE
5
254
100
AcDbEntity
8
1
6
DOT2
62
11
100
AcDbLine
10
2632.186606
20
531.732996
11
2628.523854
21
527.640394
0
LINE
5
255
100
AcDbEntity
8
1
6
DOT2
62
11
100
AcDbLine
10
2628.523854
20
527.640394
11
2622.155744
21
527.640394
0
INSERT
5
256
100
AcDbEntity
8
1
6
DOT2
62
11
100
AcDbBlockReference
2
HALF
10
2632.186606
20
531.732996
41
0.116929
42
0.116929
43
0.116929
50
48.172438
0
LINE
5
257
100
AcDbEntity
8
1
6
DOT2
62
11
100
AcDbLine
10
2629.599150
20
528.938663
11
2629.772379
21
528.938663
0
LINE
5
258
100
AcDbEntity
8
1
6
DOT2
62
11
100
AcDbLine
10
2629.685765
20
528.852049
11
2629.685765
21
529.025277
0
TEXT
5
259
100
AcDbEntity
8
1
62
11
100
AcDbText
10
2631.524207
20
527.670727
40
0.138583
41
0.825
1
R3.8
7
STANDARD
72
0
100
AcDbText
0
POINT
5
25a
100
AcDbEntity
8
DEFPOINTS
6
DOT2
62
11
100
AcDbPoint
10
2632.186606
20
531.732996
0
POINT
5
25b
100
AcDbEntity
8
DEFPOINTS
6
DOT2
62
11
100
AcDbPoint
10
2629.685765
20
528.938663
0
ENDBLK
5
25c
100
AcDbEntity
8
1
100
AcDbBlockEnd
0
BLOCK
5
25d
100
AcDbEntity
8
1
100
AcDbBlockBegin
2
*D34
70
65
10
0.000000
20
0.000000
3
*D
0
LINE
5
25e
100
AcDbEntity
8
1
6
DOT2
62
11
100
AcDbLine
10
2682.274908
20
501.374981
11
2682.274908
21
491.874981
0
LINE
5
25f
100
AcDbEntity
8
1
6
DOT2
62
11
100
AcDbLine
10
2672.768012
20
517.374981
11
2672.768012
21
491.874981
0
LINE
5
260
100
AcDbEntity
8
1
6
DOT2
62
11
100
AcDbLine
10
2682.274908
20
493.874981
11
2672.768012
21
493.874981
0
INSERT
5
261
100
AcDbEntity
8
1
6
DOT2
62
11
100
AcDbBlockReference
2
HALF
10
2682.274908
20
493.874981
41
0.116929
42
0.116929
43
0.116929
0
INSERT
5
262
100
AcDbEntity
8
1
6
DOT2
62
11
100
AcDbBlockReference
2
HALF
10
2672.768012
20
493.874981
41
0.116929
42
0.116929
43
0.116929
50
180.000000
0
TEXT
5
263
100
AcDbEntity
8
1
62
11
100
AcDbText
10
2676.412597
20
493.905314
40
0.138583
41
0.825
1
9.5
7
STANDARD
72
0
100
AcDbText
0
POINT
5
264
100
AcDbEntity
8
DEFPOINTS
6
DOT2
62
11
100
AcDbPoint
10
2682.274908
20
502.874981
0
POINT
5
265
100
AcDbEntity
8
DEFPOINTS
6
DOT2
62
11
100
AcDbPoint
10
2672.768012
20
518.874981
0
POINT
5
266
100
AcDbEntity
8
DEFPOINTS
6
DOT2
62
11
100
AcDbPoint
10
2672.768012
20
493.874981
0
ENDBLK
5
267
100
AcDbEntity
8
1
100
AcDbBlockEnd
0
BLOCK
5
268
100
AcDbEntity
8
1
100
AcDbBlockBegin
2
*D35
70
65
10
0.000000
20
0.000000
3
*D
0
LINE
5
269
100
AcDbEntity
8
1
6
DOT2
62
11
100
AcDbLine
10
2682.274908
20
501.374981
11
2682.274908
21
494.874981
0
LINE
5
26a
100
AcDbEntity
8
1
6
DOT2
62
11
100
AcDbLine
10
2675.274908
20
504.874981
11
2675.274908
21
494.874981
0
LINE
5
26b
100
AcDbEntity
8
1
6
DOT2
62
11
100
AcDbLine
10
2682.274908
20
496.874981
11
2675.274908
21
496.874981
0
INSERT
5
26c
100
AcDbEntity
8
1
6
DOT2
62
11
100
AcDbBlockReference
2
HALF
10
2682.274908
20
496.874981
41
0.116929
42
0.116929
43
0.116929
0
INSERT
5
26d
100
AcDbEntity
8
1
6
DOT2
62
11
100
AcDbBlockReference
2
HALF
10
2675.274908
20
496.874981
41
0.116929
42
0.116929
43
0.116929
50
180.000000
0
TEXT
5
26e
100
AcDbEntity
8
1
62
11
100
AcDbText
10
2678.251820
20
496.905314
40
0.138583
41
0.825
1
7
7
STANDARD
72
0
100
AcDbText
0
POINT
5
26f
100
AcDbEntity
8
DEFPOINTS
6
DOT2
62
11
100
AcDbPoint
10
2682.274908
20
502.874981
0
POINT
5
270
100
AcDbEntity
8
DEFPOINTS
6
DOT2
62
11
100
AcDbPoint
10
2675.274908
20
506.374981
0
POINT
5
271
100
AcDbEntity
8
DEFPOINTS
6
DOT2
62
11
100
AcDbPoint
10
2675.274908
20
496.874981
0
ENDBLK
5
272
100
AcDbEntity
8
1
100
AcDbBlockEnd
0
BLOCK
5
273
100
AcDbEntity
8
1
100
AcDbBlockBegin
2
*D36
70
65
10
0.000000
20
0.000000
3
*D
0
LINE
5
274
100
AcDbEntity
8
1
6
DOT2
62
11
100
AcDbLine
10
2682.274908
20
501.374981
11
2682.274908
21
497.874981
0
LINE
5
275
100
AcDbEntity
8
1
6
DOT2
62
11
100
AcDbLine
10
2681.274908
20
498.374981
11
2681.274908
21
497.874981
0
LINE
5
276
100
AcDbEntity
8
1
6
DOT2
62
11
100
AcDbLine
10
2681.274908
20
499.874981
11
2678.701827
21
499.874981
0
LINE
5
277
100
AcDbEntity
8
1
6
DOT2
62
11
100
AcDbLine
10
2682.274908
20
499.874981
11
2684.847988
21
499.874981
0
LINE
5
278
100
AcDbEntity
8
1
6
DOT2
62
11
100
AcDbLine
10
2682.274908
20
499.874981
11
2681.274908
21
499.874981
0
INSERT
5
279
100
AcDbEntity
8
1
6
DOT2
62
11
100
AcDbBlockReference
2
HALF
10
2682.274908
20
499.874981
41
0.116929
42
0.116929
43
0.116929
50
180.000000
0
INSERT
5
27a
100
AcDbEntity
8
1
6
DOT2
62
11
100
AcDbBlockReference
2
HALF
10
2681.274908
20
499.874981
41
0.116929
42
0.116929
43
0.116929
0
TEXT
5
27b
100
AcDbEntity
8
1
62
11
100
AcDbText
10
2687.262038
20
499.905314
40
0.138583
41
0.825
1
1
7
STANDARD
72
0
100
AcDbText
0
POINT
5
27c
100
AcDbEntity
8
DEFPOINTS
6
DOT2
62
11
100
AcDbPoint
10
2682.274908
20
502.874981
0
POINT
5
27d
100
AcDbEntity
8
DEFPOINTS
6
DOT2
62
11
100
AcDbPoint
10
2681.274908
20
499.874981
0
POINT
5
27e
100
AcDbEntity
8
DEFPOINTS
6
DOT2
62
11
100
AcDbPoint
10
2681.274908
20
499.874981
0
ENDBLK
5
27f
100
AcDbEntity
8
1
100
AcDbBlockEnd
0
BLOCK
5
280
100
AcDbEntity
8
1
100
AcDbBlockBegin
2
*D37
70
65
10
0.000000
20
0.000000
3
*D
0
LINE
5
281
100
AcDbEntity
8
1
6
DOT2
62
11
100
AcDbLine
10
2680.601883
20
535.614601
11
2679.041626
21
537.329245
0
LINE
5
282
100
AcDbEntity
8
1
6
DOT2
62
11
100
AcDbLine
10
2679.041626
20
537.329245
11
2672.846744
21
537.329245
0
INSERT
5
283
100
AcDbEntity
8
1
6
DOT2
62
11
100
AcDbBlockReference
2
HALF
10
2680.601883
20
535.614601
41
0.116929
42
0.116929
43
0.116929
50
312.300939
0
LINE
5
284
100
AcDbEntity
8
1
6
DOT2
62
11
100
AcDbLine
10
2681.188293
20
534.874981
11
2681.361522
21
534.874981
0
LINE
5
285
100
AcDbEntity
8
1
6
DOT2
62
11
100
AcDbLine
10
2681.274908
20
534.788367
11
2681.274908
21
534.961595
0
TEXT
5
286
100
AcDbEntity
8
1
62
11
100
AcDbText
10
2675.978191
20
537.359577
40
0.138583
41
0.825
1
R1
7
STANDARD
72
0
100
AcDbText
0
POINT
5
287
100
AcDbEntity
8
DEFPOINTS
6
DOT2
62
11
100
AcDbPoint
10
2680.601883
20
535.614601
0
POINT
5
288
100
AcDbEntity
8
DEFPOINTS
6
DOT2
62
11
100
AcDbPoint
10
2681.274908
20
534.874981
0
ENDBLK
5
289
100
AcDbEntity
8
1
100
AcDbBlockEnd
0
BLOCK
5
28a
100
AcDbEntity
8
1
100
AcDbBlockBegin
2
*D38
70
65
10
0.000000
20
0.000000
3
*D
0
LINE
5
28b
100
AcDbEntity
8
1
6
DOT2
62
11
100
AcDbLine
10
2683.774908
20
532.374981
11
2693.274908
21
532.374981
0
LINE
5
28c
100
AcDbEntity
8
1
6
DOT2
62
11
100
AcDbLine
10
2683.774908
20
505.374981
11
2693.274908
21
505.374981
0
LINE
5
28d
100
AcDbEntity
8
1
6
DOT2
62
11
100
AcDbLine
10
2691.274908
20
532.374981
11
2691.274908
21
505.374981
0
INSERT
5
28e
100
AcDbEntity
8
1
6
DOT2
62
11
100
AcDbBlockReference
2
HALF
10
2691.274908
20
505.374981
41
0.116929
42
0.116929
43
0.116929
50
270.000000
0
INSERT
5
28f
100
AcDbEntity
8
1
6
DOT2
62
11
100
AcDbBlockReference
2
HALF
10
2691.274908
20
532.374981
41
0.116929
42
0.116929
43
0.116929
50
90.000000
0
TEXT
5
290
100
AcDbEntity
8
1
62
11
100
AcDbText
10
2691.244575
20
518.410444
40
0.138583
41
0.825
1
27
50
90.000000
7
STANDARD
72
0
100
AcDbText
0
POINT
5
291
100
AcDbEntity
8
DEFPOINTS
6
DOT2
62
11
100
AcDbPoint
10
2682.274908
20
532.374981
0
POINT
5
292
100
AcDbEntity
8
DEFPOINTS
6
DOT2
62
11
100
AcDbPoint
10
2682.274908
20
505.374981
0
POINT
5
293
100
AcDbEntity
8
DEFPOINTS
6
DOT2
62
11
100
AcDbPoint
10
2691.274908
20
505.374981
0
ENDBLK
5
294
100
AcDbEntity
8
1
100
AcDbBlockEnd
0
BLOCK
5
295
100
AcDbEntity
8
1
100
AcDbBlockBegin
2
*D39
70
65
10
0.000000
20
0.000000
3
*D
0
LINE
5
296
100
AcDbEntity
8
1
6
DOT2
62
11
100
AcDbLine
10
2683.774908
20
524.366532
11
2690.274908
21
524.366532
0
LINE
5
297
100
AcDbEntity
8
1
6
DOT2
62
11
100
AcDbLine
10
2683.774908
20
513.366532
11
2690.274908
21
513.366532
0
LINE
5
298
100
AcDbEntity
8
1
6
DOT2
62
11
100
AcDbLine
10
2688.274908
20
524.366532
11
2688.274908
21
513.366532
0
INSERT
5
299
100
AcDbEntity
8
1
6
DOT2
62
11
100
AcDbBlockReference
2
HALF
10
2688.274908
20
513.366532
41
0.116929
42
0.116929
43
0.116929
50
270.000000
0
INSERT
5
29a
100
AcDbEntity
8
1
6
DOT2
62
11
100
AcDbBlockReference
2
HALF
10
2688.274908
20
524.366532
41
0.116929
42
0.116929
43
0.116929
50
90.000000
0
TEXT
5
29b
100
AcDbEntity
8
1
62
11
100
AcDbText
10
2688.244575
20
518.495618
40
0.138583
41
0.825
1
%%c11
50
90.000000
7
STANDARD
72
0
100
AcDbText
0
POINT
5
29c
100
AcDbEntity
8
DEFPOINTS
6
DOT2
62
11
100
AcDbPoint
10
2682.274908
20
524.366532
0
POINT
5
29d
100
AcDbEntity
8
DEFPOINTS
6
DOT2
62
11
100
AcDbPoint
10
2682.274908
20
513.366532
0
POINT
5
29e
100
AcDbEntity
8
DEFPOINTS
6
DOT2
62
11
100
AcDbPoint
10
2688.274908
20
513.366532
0
ENDBLK
5
29f
100
AcDbEntity
8
1
100
AcDbBlockEnd
0
BLOCK
5
2a0
100
AcDbEntity
8
1
100
AcDbBlockBegin
2
*D40
70
65
10
0.000000
20
0.000000
3
*D
0
LINE
5
2a1
100
AcDbEntity
8
1
6
DOT2
62
11
100
AcDbLine
10
2966.397243
20
389.177584
11
2966.397243
21
375.177584
0
LINE
5
2a2
100
AcDbEntity
8
1
6
DOT2
62
11
100
AcDbLine
10
2987.392212
20
389.177584
11
2987.392212
21
375.177584
0
LINE
5
2a3
100
AcDbEntity
8
1
6
DOT2
62
11
100
AcDbLine
10
2966.397243
20
377.177584
11
2987.392212
21
377.177584
0
INSERT
5
2a4
100
AcDbEntity
8
1
6
DOT2
62
11
100
AcDbBlockReference
2
HALF
10
2966.397243
20
377.177584
41
0.116929
42
0.116929
43
0.116929
50
180.000000
0
INSERT
5
2a5
100
AcDbEntity
8
1
6
DOT2
62
11
100
AcDbBlockReference
2
HALF
10
2987.392212
20
377.177584
41
0.116929
42
0.116929
43
0.116929
0
TEXT
5
2a6
100
AcDbEntity
8
1
62
11
100
AcDbText
10
2976.754741
20
377.207917
40
0.138583
41
0.825
1
21
7
STANDARD
72
0
100
AcDbText
0
POINT
5
2a7
100
AcDbEntity
8
DEFPOINTS
6
DOT2
62
11
100
AcDbPoint
10
2966.397243
20
390.677584
0
POINT
5
2a8
100
AcDbEntity
8
DEFPOINTS
6
DOT2
62
11
100
AcDbPoint
10
2987.392212
20
390.677584
0
POINT
5
2a9
100
AcDbEntity
8
DEFPOINTS
6
DOT2
62
11
100
AcDbPoint
10
2987.392212
20
377.177584
0
ENDBLK
5
2aa
100
AcDbEntity
8
1
100
AcDbBlockEnd
0
BLOCK
5
2ab
100
AcDbEntity
8
1
100
AcDbBlockBegin
2
*D41
70
65
10
0.000000
20
0.000000
3
*D
0
LINE
5
2ac
100
AcDbEntity
8
1
6
DOT2
62
11
100
AcDbLine
10
2964.397243
20
385.606695
11
2964.397243
21
372.177584
0
LINE
5
2ad
100
AcDbEntity
8
1
6
DOT2
62
11
100
AcDbLine
10
2989.392212
20
384.677584
11
2989.392212
21
372.177584
0
LINE
5
2ae
100
AcDbEntity
8
1
6
DOT2
62
11
100
AcDbLine
10
2964.397243
20
374.177584
11
2989.392212
21
374.177584
0
INSERT
5
2af
100
AcDbEntity
8
1
6
DOT2
62
11
100
AcDbBlockReference
2
HALF
10
2964.397243
20
374.177584
41
0.116929
42
0.116929
43
0.116929
50
180.000000
0
INSERT
5
2b0
100
AcDbEntity
8
1
6
DOT2
62
11
100
AcDbBlockReference
2
HALF
10
2989.392212
20
374.177584
41
0.116929
42
0.116929
43
0.116929
0
TEXT
5
2b1
100
AcDbEntity
8
1
62
11
100
AcDbText
10
2977.094920
20
374.207917
40
0.138583
41
0.825
1
25
7
STANDARD
72
0
100
AcDbText
0
POINT
5
2b2
100
AcDbEntity
8
DEFPOINTS
6
DOT2
62
11
100
AcDbPoint
10
2964.397243
20
387.106695
0
POINT
5
2b3
100
AcDbEntity
8
DEFPOINTS
6
DOT2
62
11
100
AcDbPoint
10
2989.392212
20
386.177584
0
POINT
5
2b4
100
AcDbEntity
8
DEFPOINTS
6
DOT2
62
11
100
AcDbPoint
10
2989.392212
20
374.177584
0
ENDBLK
5
2b5
100
AcDbEntity
8
1
100
AcDbBlockEnd
0
BLOCK
5
2b6
100
AcDbEntity
8
1
100
AcDbBlockBegin
2
*D42
70
65
10
0.000000
20
0.000000
3
*D
0
LINE
5
2b7
100
AcDbEntity
8
1
6
DOT2
62
11
100
AcDbLine
10
2965.668107
20
410.199647
11
2971.397243
21
406.177584
0
INSERT
5
2b8
100
AcDbEntity
8
1
6
DOT2
62
11
100
AcDbBlockReference
2
HALF
10
2965.668107
20
410.199647
41
0.116929
42
0.116929
43
0.116929
50
144.929746
0
LINE
5
2b9
100
AcDbEntity
8
1
6
DOT2
62
11
100
AcDbLine
10
2971.397243
20
406.177584
11
2965.668107
21
410.199647
0
TEXT
5
2ba
100
AcDbEntity
8
1
62
11
100
AcDbText
10
2961.970879
20
412.832297
40
0.138583
41
0.825
1
R7
50
-35.070254
7
STANDARD
72
0
100
AcDbText
0
POINT
5
2bb
100
AcDbEntity
8
DEFPOINTS
6
DOT2
62
11
100
AcDbPoint
10
2965.668107
20
410.199647
0
POINT
5
2bc
100
AcDbEntity
8
DEFPOINTS
6
DOT2
62
11
100
AcDbPoint
10
2971.397243
20
406.177584
0
ENDBLK
5
2bd
100
AcDbEntity
8
1
100
AcDbBlockEnd
0
BLOCK
5
2be
100
AcDbEntity
8
1
100
AcDbBlockBegin
2
*D43
70
65
10
0.000000
20
0.000000
3
*D
0
LINE
5
2bf
100
AcDbEntity
8
1
6
DOT2
62
11
100
AcDbLine
10
2969.083060
20
410.609802
11
2971.397243
21
406.177584
0
INSERT
5
2c0
100
AcDbEntity
8
1
6
DOT2
62
11
100
AcDbBlockReference
2
HALF
10
2969.083060
20
410.609802
41
0.116929
42
0.116929
43
0.116929
50
117.570303
0
LINE
5
2c1
100
AcDbEntity
8
1
6
DOT2
62
11
100
AcDbLine
10
2971.397243
20
406.177584
11
2969.083060
21
410.609802
0
TEXT
5
2c2
100
AcDbEntity
8
1
62
11
100
AcDbText
10
2966.991447
20
414.681281
40
0.138583
41
0.825
1
R5
50
-62.429697
7
STANDARD
72
0
100
AcDbText
0
POINT
5
2c3
100
AcDbEntity
8
DEFPOINTS
6
DOT2
62
11
100
AcDbPoint
10
2969.083060
20
410.609802
0
POINT
5
2c4
100
AcDbEntity
8
DEFPOINTS
6
DOT2
62
11
100
AcDbPoint
10
2971.397243
20
406.177584
0
ENDBLK
5
2c5
100
AcDbEntity
8
1
100
AcDbBlockEnd
0
BLOCK
5
2c6
100
AcDbEntity
8
1
100
AcDbBlockBegin
2
*D44
70
65
10
0.000000
20
0.000000
3
*D
0
LINE
5
2c7
100
AcDbEntity
8
1
6
DOT2
62
11
100
AcDbLine
10
2982.892212
20
411.177584
11
2994.392212
21
411.177584
0
LINE
5
2c8
100
AcDbEntity
8
1
6
DOT2
62
11
100
AcDbLine
10
2982.892212
20
381.427584
11
2994.392212
21
381.427584
0
LINE
5
2c9
100
AcDbEntity
8
1
6
DOT2
62
11
100
AcDbLine
10
2992.392212
20
411.177584
11
2992.392212
21
381.427584
0
INSERT
5
2ca
100
AcDbEntity
8
1
6
DOT2
62
11
100
AcDbBlockReference
2
HALF
10
2992.392212
20
381.427584
41
0.116929
42
0.116929
43
0.116929
50
270.000000
0
INSERT
5
2cb
100
AcDbEntity
8
1
6
DOT2
62
11
100
AcDbBlockReference
2
HALF
10
2992.392212
20
411.177584
41
0.116929
42
0.116929
43
0.116929
50
90.000000
0
TEXT
5
2cc
100
AcDbEntity
8
1
62
11
100
AcDbText
10
2992.361880
20
396.084716
40
0.138583
41
0.825
1
6
50
90.000000
7
STANDARD
72
0
100
AcDbText
0
POINT
5
2cd
100
AcDbEntity
8
DEFPOINTS
6
DOT2
62
11
100
AcDbPoint
10
2981.392212
20
411.177584
0
POINT
5
2ce
100
AcDbEntity
8
DEFPOINTS
6
DOT2
62
11
100
AcDbPoint
10
2981.392212
20
381.427584
0
POINT
5
2cf
100
AcDbEntity
8
DEFPOINTS
6
DOT2
62
11
100
AcDbPoint
10
2992.392212
20
381.427584
0
ENDBLK
5
2d0
100
AcDbEntity
8
1
100
AcDbBlockEnd
0
BLOCK
5
2d1
100
AcDbEntity
8
1
100
AcDbBlockBegin
2
*D45
70
65
10
0.000000
20
0.000000
3
*D
0
LINE
5
2d2
100
AcDbEntity
8
1
6
DOT2
62
11
100
AcDbLine
10
2983.892212
20
413.177584
11
2997.392212
21
413.177584
0
LINE
5
2d3
100
AcDbEntity
8
1
6
DOT2
62
11
100
AcDbLine
10
2983.892212
20
379.177584
11
2997.392212
21
379.177584
0
LINE
5
2d4
100
AcDbEntity
8
1
6
DOT2
62
11
100
AcDbLine
10
2995.392212
20
413.177584
11
2995.392212
21
379.177584
0
INSERT
5
2d5
100
AcDbEntity
8
1
6
DOT2
62
11
100
AcDbBlockReference
2
HALF
10
2995.392212
20
379.177584
41
0.116929
42
0.116929
43
0.116929
50
270.000000
0
INSERT
5
2d6
100
AcDbEntity
8
1
6
DOT2
62
11
100
AcDbBlockReference
2
HALF
10
2995.392212
20
413.177584
41
0.116929
42
0.116929
43
0.116929
50
90.000000
0
TEXT
5
2d7
100
AcDbEntity
8
1
62
11
100
AcDbText
10
2995.361880
20
395.243848
40
0.138583
41
0.825
1
34
50
90.000000
7
STANDARD
72
0
100
AcDbText
0
POINT
5
2d8
100
AcDbEntity
8
DEFPOINTS
6
DOT2
62
11
100
AcDbPoint
10
2982.392212
20
413.177584
0
POINT
5
2d9
100
AcDbEntity
8
DEFPOINTS
6
DOT2
62
11
100
AcDbPoint
10
2982.392212
20
379.177584
0
POINT
5
2da
100
AcDbEntity
8
DEFPOINTS
6
DOT2
62
11
100
AcDbPoint
10
2995.392212
20
379.177584
0
ENDBLK
5
2db
100
AcDbEntity
8
1
100
AcDbBlockEnd
0
BLOCK
5
2dc
100
AcDbEntity
8
1
100
AcDbBlockBegin
2
*D46
70
65
10
0.000000
20
0.000000
3
*D
0
LINE
5
2dd
100
AcDbEntity
8
1
6
DOT2
62
11
100
AcDbLine
10
2984.895663
20
409.035599
11
2981.232911
21
404.942997
0
LINE
5
2de
100
AcDbEntity
8
1
6
DOT2
62
11
100
AcDbLine
10
2981.232911
20
404.942997
11
2974.864801
21
404.942997
0
INSERT
5
2df
100
AcDbEntity
8
1
6
DOT2
62
11
100
AcDbBlockReference
2
HALF
10
2984.895663
20
409.035599
41
0.116929
42
0.116929
43
0.116929
50
48.172438
0
LINE
5
2e0
100
AcDbEntity
8
1
6
DOT2
62
11
100
AcDbLine
10
2982.308207
20
406.241266
11
2982.481436
21
406.241266
0
LINE
5
2e1
100
AcDbEntity
8
1
6
DOT2
62
11
100
AcDbLine
10
2982.394821
20
406.154652
11
2982.394821
21
406.327880
0
TEXT
5
2e2
100
AcDbEntity
8
1
62
11
100
AcDbText
10
2984.233264
20
404.973330
40
0.138583
41
0.825
1
R0.8
7
STANDARD
72
0
100
AcDbText
0
POINT
5
2e3
100
AcDbEntity
8
DEFPOINTS
6
DOT2
62
11
100
AcDbPoint
10
2984.895663
20
409.035599
0
POINT
5
2e4
100
AcDbEntity
8
DEFPOINTS
6
DOT2
62
11
100
AcDbPoint
10
2982.394821
20
406.241266
0
ENDBLK
5
2e5
100
AcDbEntity
8
1
100
AcDbBlockEnd
0
BLOCK
5
2e6
100
AcDbEntity
8
1
100
AcDbBlockBegin
2
*D47
70
65
10
0.000000
20
0.000000
3
*D
0
LINE
5
2e7
100
AcDbEntity
8
1
6
DOT2
62
11
100
AcDbLine
10
2966.066514
20
389.657142
11
2966.066514
21
375.657142
0
LINE
5
2e8
100
AcDbEntity
8
1
6
DOT2
62
11
100
AcDbLine
10
2987.061483
20
389.657142
11
2987.061483
21
375.657142
0
LINE
5
2e9
100
AcDbEntity
8
1
6
DOT2
62
11
100
AcDbLine
10
2966.066514
20
377.657142
11
2987.061483
21
377.657142
0
INSERT
5
2ea
100
AcDbEntity
8
1
6
DOT2
62
11
100
AcDbBlockReference
2
HALF
10
2966.066514
20
377.657142
41
0.116929
42
0.116929
43
0.116929
50
180.000000
0
INSERT
5
2eb
100
AcDbEntity
8
1
6
DOT2
62
11
100
AcDbBlockReference
2
HALF
10
2987.061483
20
377.657142
41
0.116929
42
0.116929
43
0.116929
0
TEXT
5
2ec
100
AcDbEntity
8
1
62
11
100
AcDbText
10
2976.424012
20
377.687474
40
0.138583
41
0.825
1
21
7
STANDARD
72
0
100
AcDbText
0
POINT
5
2ed
100
AcDbEntity
8
DEFPOINTS
6
DOT2
62
11
100
AcDbPoint
10
2966.066514
20
391.157142
0
POINT
5
2ee
100
AcDbEntity
8
DEFPOINTS
6
DOT2
62
11
100
AcDbPoint
10
2987.061483
20
391.157142
0
POINT
5
2ef
100
AcDbEntity
8
DEFPOINTS
6
DOT2
62
11
100
AcDbPoint
10
2987.061483
20
377.657142
0
ENDBLK
5
2f0
100
AcDbEntity
8
1
100
AcDbBlockEnd
0
BLOCK
5
2f1
100
AcDbEntity
8
1
100
AcDbBlockBegin
2
*D48
70
65
10
0.000000
20
0.000000
3
*D
0
LINE
5
2f2
100
AcDbEntity
8
1
6
DOT2
62
11
100
AcDbLine
10
2964.066514
20
386.086252
11
2964.066514
21
372.657142
0
LINE
5
2f3
100
AcDbEntity
8
1
6
DOT2
62
11
100
AcDbLine
10
2989.061483
20
385.157142
11
2989.061483
21
372.657142
0
LINE
5
2f4
100
AcDbEntity
8
1
6
DOT2
62
11
100
AcDbLine
10
2964.066514
20
374.657142
11
2989.061483
21
374.657142
0
INSERT
5
2f5
100
AcDbEntity
8
1
6
DOT2
62
11
100
AcDbBlockReference
2
HALF
10
2964.066514
20
374.657142
41
0.116929
42
0.116929
43
0.116929
50
180.000000
0
INSERT
5
2f6
100
AcDbEntity
8
1
6
DOT2
62
11
100
AcDbBlockReference
2
HALF
10
2989.061483
20
374.657142
41
0.116929
42
0.116929
43
0.116929
0
TEXT
5
2f7
100
AcDbEntity
8
1
62
11
100
AcDbText
10
2976.764191
20
374.687474
40
0.138583
41
0.825
1
25
7
STANDARD
72
0
100
AcDbText
0
POINT
5
2f8
100
AcDbEntity
8
DEFPOINTS
6
DOT2
62
11
100
AcDbPoint
10
2964.066514
20
387.586252
0
POINT
5
2f9
100
AcDbEntity
8
DEFPOINTS
6
DOT2
62
11
100
AcDbPoint
10
2989.061483
20
386.657142
0
POINT
5
2fa
100
AcDbEntity
8
DEFPOINTS
6
DOT2
62
11
100
AcDbPoint
10
2989.061483
20
374.657142
0
ENDBLK
5
2fb
100
AcDbEntity
8
1
100
AcDbBlockEnd
0
BLOCK
5
2fc
100
AcDbEntity
8
1
100
AcDbBlockBegin
2
*D49
70
65
10
0.000000
20
0.000000
3
*D
0
LINE
5
2fd
100
AcDbEntity
8
1
6
DOT2
62
11
100
AcDbLine
10
2965.337377
20
410.679205
11
2971.066514
21
406.657142
0
INSERT
5
2fe
100
AcDbEntity
8
1
6
DOT2
62
11
100
AcDbBlockReference
2
HALF
10
2965.337377
20
410.679205
41
0.116929
42
0.116929
43
0.116929
50
144.929746
0
LINE
5
2ff
100
AcDbEntity
8
1
6
DOT2
62
11
100
AcDbLine
10
2971.066514
20
406.657142
11
2965.337377
21
410.679205
0
TEXT
5
300
100
AcDbEntity
8
1
62
11
100
AcDbText
10
2961.640150
20
413.311854
40
0.138583
41
0.825
1
R7
50
-35.070254
7
STANDARD
72
0
100
AcDbText
0
POINT
5
301
100
AcDbEntity
8
DEFPOINTS
6
DOT2
62
11
100
AcDbPoint
10
2965.337377
20
410.679205
0
POINT
5
302
100
AcDbEntity
8
DEFPOINTS
6
DOT2
62
11
100
AcDbPoint
10
2971.066514
20
406.657142
0
ENDBLK
5
303
100
AcDbEntity
8
1
100
AcDbBlockEnd
0
BLOCK
5
304
100
AcDbEntity
8
1
100
AcDbBlockBegin
2
*D50
70
65
10
0.000000
20
0.000000
3
*D
0
LINE
5
305
100
AcDbEntity
8
1
6
DOT2
62
11
100
AcDbLine
10
2968.752331
20
411.089360
11
2971.066514
21
406.657142
0
INSERT
5
306
100
AcDbEntity
8
1
6
DOT2
62
11
100
AcDbBlockReference
2
HALF
10
2968.752331
20
411.089360
41
0.116929
42
0.116929
43
0.116929
50
117.570303
0
LINE
5
307
100
AcDbEntity
8
1
6
DOT2
62
11
100
AcDbLine
10
2971.066514
20
406.657142
11
2968.752331
21
411.089360
0
TEXT
5
308
100
AcDbEntity
8
1
62
11
100
AcDbText
10
2966.660718
20
415.160838
40
0.138583
41
0.825
1
R5
50
-62.429697
7
STANDARD
72
0
100
AcDbText
0
POINT
5
309
100
AcDbEntity
8
DEFPOINTS
6
DOT2
62
11
100
AcDbPoint
10
2968.752331
20
411.089360
0
POINT
5
30a
100
AcDbEntity
8
DEFPOINTS
6
DOT2
62
11
100
AcDbPoint
10
2971.066514
20
406.657142
0
ENDBLK
5
30b
100
AcDbEntity
8
1
100
AcDbBlockEnd
0
BLOCK
5
30c
100
AcDbEntity
8
1
100
AcDbBlockBegin
2
*D51
70
65
10
0.000000
20
0.000000
3
*D
0
LINE
5
30d
100
AcDbEntity
8
1
6
DOT2
62
11
100
AcDbLine
10
2982.561483
20
411.657142
11
2994.061483
21
411.657142
0
LINE
5
30e
100
AcDbEntity
8
1
6
DOT2
62
11
100
AcDbLine
10
2982.561483
20
381.907142
11
2994.061483
21
381.907142
0
LINE
5
30f
100
AcDbEntity
8
1
6
DOT2
62
11
100
AcDbLine
10
2992.061483
20
411.657142
11
2992.061483
21
381.907142
0
INSERT
5
310
100
AcDbEntity
8
1
6
DOT2
62
11
100
AcDbBlockReference
2
HALF
10
2992.061483
20
381.907142
41
0.116929
42
0.116929
43
0.116929
50
270.000000
0
INSERT
5
311
100
AcDbEntity
8
1
6
DOT2
62
11
100
AcDbBlockReference
2
HALF
10
2992.061483
20
411.657142
41
0.116929
42
0.116929
43
0.116929
50
90.000000
0
TEXT
5
312
100
AcDbEntity
8
1
62
11
100
AcDbText
10
2992.031150
20
396.564273
40
0.138583
41
0.825
1
6
50
90.000000
7
STANDARD
72
0
100
AcDbText
0
POINT
5
313
100
AcDbEntity
8
DEFPOINTS
6
DOT2
62
11
100
AcDbPoint
10
2981.061483
20
411.657142
0
POINT
5
314
100
AcDbEntity
8
DEFPOINTS
6
DOT2
62
11
100
AcDbPoint
10
2981.061483
20
381.907142
0
POINT
5
315
100
AcDbEntity
8
DEFPOINTS
6
DOT2
62
11
100
AcDbPoint
10
2992.061483
20
381.907142
0
ENDBLK
5
316
100
AcDbEntity
8
1
100
AcDbBlockEnd
0
BLOCK
5
317
100
AcDbEntity
8
1
100
AcDbBlockBegin
2
*D52
70
65
10
0.000000
20
0.000000
3
*D
0
LINE
5
318
100
AcDbEntity
8
1
6
DOT2
62
11
100
AcDbLine
10
2983.561483
20
413.657142
11
2997.061483
21
413.657142
0
LINE
5
319
100
AcDbEntity
8
1
6
DOT2
62
11
100
AcDbLine
10
2983.561483
20
379.657142
11
2997.061483
21
379.657142
0
LINE
5
31a
100
AcDbEntity
8
1
6
DOT2
62
11
100
AcDbLine
10
2995.061483
20
413.657142
11
2995.061483
21
379.657142
0
INSERT
5
31b
100
AcDbEntity
8
1
6
DOT2
62
11
100
AcDbBlockReference
2
HALF
10
2995.061483
20
379.657142
41
0.116929
42
0.116929
43
0.116929
50
270.000000
0
INSERT
5
31c
100
AcDbEntity
8
1
6
DOT2
62
11
100
AcDbBlockReference
2
HALF
10
2995.061483
20
413.657142
41
0.116929
42
0.116929
43
0.116929
50
90.000000
0
TEXT
5
31d
100
AcDbEntity
8
1
62
11
100
AcDbText
10
2995.031150
20
395.723405
40
0.138583
41
0.825
1
34
50
90.000000
7
STANDARD
72
0
100
AcDbText
0
POINT
5
31e
100
AcDbEntity
8
DEFPOINTS
6
DOT2
62
11
100
AcDbPoint
10
2982.061483
20
413.657142
0
POINT
5
31f
100
AcDbEntity
8
DEFPOINTS
6
DOT2
62
11
100
AcDbPoint
10
2982.061483
20
379.657142
0
POINT
5
320
100
AcDbEntity
8
DEFPOINTS
6
DOT2
62
11
100
AcDbPoint
10
2995.061483
20
379.657142
0
ENDBLK
5
321
100
AcDbEntity
8
1
100
AcDbBlockEnd
0
BLOCK
5
322
100
AcDbEntity
8
1
100
AcDbBlockBegin
2
*D53
70
65
10
0.000000
20
0.000000
3
*D
0
LINE
5
323
100
AcDbEntity
8
1
6
DOT2
62
11
100
AcDbLine
10
2984.564934
20
409.515156
11
2980.902182
21
405.422555
0
LINE
5
324
100
AcDbEntity
8
1
6
DOT2
62
11
100
AcDbLine
10
2980.902182
20
405.422555
11
2974.534072
21
405.422555
0
INSERT
5
325
100
AcDbEntity
8
1
6
DOT2
62
11
100
AcDbBlockReference
2
HALF
10
2984.564934
20
409.515156
41
0.116929
42
0.116929
43
0.116929
50
48.172438
0
LINE
5
326
100
AcDbEntity
8
1
6
DOT2
62
11
100
AcDbLine
10
2981.977478
20
406.720824
11
2982.150706
21
406.720824
0
LINE
5
327
100
AcDbEntity
8
1
6
DOT2
62
11
100
AcDbLine
10
2982.064092
20
406.634209
11
2982.064092
21
406.807438
0
TEXT
5
328
100
AcDbEntity
8
1
62
11
100
AcDbText
10
2983.902535
20
405.452887
40
0.138583
41
0.825
1
R0.8
7
STANDARD
72
0
100
AcDbText
0
POINT
5
329
100
AcDbEntity
8
DEFPOINTS
6
DOT2
62
11
100
AcDbPoint
10
2984.564934
20
409.515156
0
POINT
5
32a
100
AcDbEntity
8
DEFPOINTS
6
DOT2
62
11
100
AcDbPoint
10
2982.064092
20
406.720824
0
ENDBLK
5
32b
100
AcDbEntity
8
1
100
AcDbBlockEnd
0
BLOCK
5
32c
100
AcDbEntity
8
1
100
AcDbBlockBegin
2
*D54
70
65
10
0.000000
20
0.000000
3
*D
0
LINE
5
32d
100
AcDbEntity
8
1
6
DOT2
62
11
100
AcDbLine
10
3034.983965
20
378.677584
11
3034.983965
21
369.177584
0
LINE
5
32e
100
AcDbEntity
8
1
6
DOT2
62
11
100
AcDbLine
10
3025.477069
20
394.677584
11
3025.477069
21
369.177584
0
LINE
5
32f
100
AcDbEntity
8
1
6
DOT2
62
11
100
AcDbLine
10
3034.983965
20
371.177584
11
3025.477069
21
371.177584
0
INSERT
5
330
100
AcDbEntity
8
1
6
DOT2
62
11
100
AcDbBlockReference
2
HALF
10
3034.983965
20
371.177584
41
0.116929
42
0.116929
43
0.116929
0
INSERT
5
331
100
AcDbEntity
8
1
6
DOT2
62
11
100
AcDbBlockReference
2
HALF
10
3025.477069
20
371.177584
41
0.116929
42
0.116929
43
0.116929
50
180.000000
0
TEXT
5
332
100
AcDbEntity
8
1
62
11
100
AcDbText
10
3029.121654
20
371.207917
40
0.138583
41
0.825
1
1.9
7
STANDARD
72
0
100
AcDbText
0
POINT
5
333
100
AcDbEntity
8
DEFPOINTS
6
DOT2
62
11
100
AcDbPoint
10
3034.983965
20
380.177584
0
POINT
5
334
100
AcDbEntity
8
DEFPOINTS
6
DOT2
62
11
100
AcDbPoint
10
3025.477069
20
396.177584
0
POINT
5
335
100
AcDbEntity
8
DEFPOINTS
6
DOT2
62
11
100
AcDbPoint
10
3025.477069
20
371.177584
0
ENDBLK
5
336
100
AcDbEntity
8
1
100
AcDbBlockEnd
0
BLOCK
5
337
100
AcDbEntity
8
1
100
AcDbBlockBegin
2
*D55
70
65
10
0.000000
20
0.000000
3
*D
0
LINE
5
338
100
AcDbEntity
8
1
6
DOT2
62
11
100
AcDbLine
10
3034.983965
20
378.677584
11
3034.983965
21
375.177584
0
LINE
5
339
100
AcDbEntity
8
1
6
DOT2
62
11
100
AcDbLine
10
3033.983965
20
375.677584
11
3033.983965
21
375.177584
0
LINE
5
33a
100
AcDbEntity
8
1
6
DOT2
62
11
100
AcDbLine
10
3033.983965
20
377.177584
11
3031.410884
21
377.177584
0
LINE
5
33b
100
AcDbEntity
8
1
6
DOT2
62
11
100
AcDbLine
10
3034.983965
20
377.177584
11
3037.557045
21
377.177584
0
LINE
5
33c
100
AcDbEntity
8
1
6
DOT2
62
11
100
AcDbLine
10
3034.983965
20
377.177584
11
3033.983965
21
377.177584
0
INSERT
5
33d
100
AcDbEntity
8
1
6
DOT2
62
11
100
AcDbBlockReference
2
HALF
10
3034.983965
20
377.177584
41
0.116929
42
0.116929
43
0.116929
50
180.000000
0
INSERT
5
33e
100
AcDbEntity
8
1
6
DOT2
62
11
100
AcDbBlockReference
2
HALF
10
3033.983965
20
377.177584
41
0.116929
42
0.116929
43
0.116929
0
TEXT
5
33f
100
AcDbEntity
8
1
62
11
100
AcDbText
10
3039.971095
20
377.207917
40
0.138583
41
0.825
1
0.2
7
STANDARD
72
0
100
AcDbText
0
POINT
5
340
100
AcDbEntity
8
DEFPOINTS
6
DOT2
62
11
100
AcDbPoint
10
3034.983965
20
380.177584
0
POINT
5
341
100
AcDbEntity
8
DEFPOINTS
6
DOT2
62
11
100
AcDbPoint
10
3033.983965
20
377.177584
0
POINT
5
342
100
AcDbEntity
8
DEFPOINTS
6
DOT2
62
11
100
AcDbPoint
10
3033.983965
20
377.177584
0
ENDBLK
5
343
100
AcDbEntity
8
1
100
AcDbBlockEnd
0
BLOCK
5
344
100
AcDbEntity
8
1
100
AcDbBlockBegin
2
*D56
70
65
10
0.000000
20
0.000000
3
*D
0
LINE
5
345
100
AcDbEntity
8
1
6
DOT2
62
11
100
AcDbLine
10
3034.983965
20
378.677584
11
3034.983965
21
372.177584
0
LINE
5
346
100
AcDbEntity
8
1
6
DOT2
62
11
100
AcDbLine
10
3027.983965
20
382.177584
11
3027.983965
21
372.177584
0
LINE
5
347
100
AcDbEntity
8
1
6
DOT2
62
11
100
AcDbLine
10
3034.983965
20
374.177584
11
3027.983965
21
374.177584
0
INSERT
5
348
100
AcDbEntity
8
1
6
DOT2
62
11
100
AcDbBlockReference
2
HALF
10
3034.983965
20
374.177584
41
0.116929
42
0.116929
43
0.116929
0
INSERT
5
349
100
AcDbEntity
8
1
6
DOT2
62
11
100
AcDbBlockReference
2
HALF
10
3027.983965
20
374.177584
41
0.116929
42
0.116929
43
0.116929
50
180.000000
0
TEXT
5
34a
100
AcDbEntity
8
1
62
11
100
AcDbText
10
3030.866641
20
374.207917
40
0.138583
41
0.825
1
1.4
7
STANDARD
72
0
100
AcDbText
0
POINT
5
34b
100
AcDbEntity
8
DEFPOINTS
6
DOT2
62
11
100
AcDbPoint
10
3034.983965
20
380.177584
0
POINT
5
34c
100
AcDbEntity
8
DEFPOINTS
6
DOT2
62
11
100
AcDbPoint
10
3027.983965
20
383.677584
0
POINT
5
34d
100
AcDbEntity
8
DEFPOINTS
6
DOT2
62
11
100
AcDbPoint
10
3027.983965
20
374.177584
0
ENDBLK
5
34e
100
AcDbEntity
8
1
100
AcDbBlockEnd
0
BLOCK
5
34f
100
AcDbEntity
8
1
100
AcDbBlockBegin
2
*D57
70
65
10
0.000000
20
0.000000
3
*D
0
LINE
5
350
100
AcDbEntity
8
1
6
DOT2
62
11
100
AcDbLine
10
3033.310940
20
412.917204
11
3031.750683
21
414.631848
0
LINE
5
351
100
AcDbEntity
8
1
6
DOT2
62
11
100
AcDbLine
10
3031.750683
20
414.631848
11
3025.555801
21
414.631848
0
INSERT
5
352
100
AcDbEntity
8
1
6
DOT2
62
11
100
AcDbBlockReference
2
HALF
10
3033.310940
20
412.917204
41
0.116929
42
0.116929
43
0.116929
50
312.300939
0
LINE
5
353
100
AcDbEntity
8
1
6
DOT2
62
11
100
AcDbLine
10
3033.897350
20
412.177584
11
3034.070579
21
412.177584
0
LINE
5
354
100
AcDbEntity
8
1
6
DOT2
62
11
100
AcDbLine
10
3033.983965
20
412.090970
11
3033.983965
21
412.264198
0
TEXT
5
355
100
AcDbEntity
8
1
62
11
100
AcDbText
10
3028.687248
20
414.662180
40
0.138583
41
0.825
1
R1
7
STANDARD
72
0
100
AcDbText
0
POINT
5
356
100
AcDbEntity
8
DEFPOINTS
6
DOT2
62
11
100
AcDbPoint
10
3033.310940
20
412.917204
0
POINT
5
357
100
AcDbEntity
8
DEFPOINTS
6
DOT2
62
11
100
AcDbPoint
10
3033.983965
20
412.177584
0
ENDBLK
5
358
100
AcDbEntity
8
1
100
AcDbBlockEnd
0
BLOCK
5
359
100
AcDbEntity
8
1
100
AcDbBlockBegin
2
*D58
70
65
10
0.000000
20
0.000000
3
*D
0
LINE
5
35a
100
AcDbEntity
8
1
6
DOT2
62
11
100
AcDbLine
10
3036.483965
20
409.677584
11
3045.983965
21
409.677584
0
LINE
5
35b
100
AcDbEntity
8
1
6
DOT2
62
11
100
AcDbLine
10
3036.483965
20
382.677584
11
3045.983965
21
382.677584
0
LINE
5
35c
100
AcDbEntity
8
1
6
DOT2
62
11
100
AcDbLine
10
3043.983965
20
409.677584
11
3043.983965
21
382.677584
0
INSERT
5
35d
100
AcDbEntity
8
1
6
DOT2
62
11
100
AcDbBlockReference
2
HALF
10
3043.983965
20
382.677584
41
0.116929
42
0.116929
43
0.116929
50
270.000000
0
INSERT
5
35e
100
AcDbEntity
8
1
6
DOT2
62
11
100
AcDbBlockReference
2
HALF
10
3043.983965
20
409.677584
41
0.116929
42
0.116929
43
0.116929
50
90.000000
0
TEXT
5
35f
100
AcDbEntity
8
1
62
11
100
AcDbText
10
3043.953632
20
395.665929
40
0.138583
41
0.825
1
5.4
50
90.000000
7
STANDARD
72
0
100
AcDbText
0
POINT
5
360
100
AcDbEntity
8
DEFPOINTS
6
DOT2
62
11
100
AcDbPoint
10
3034.983965
20
409.677584
0
POINT
5
361
100
AcDbEntity
8
DEFPOINTS
6
DOT2
62
11
100
AcDbPoint
10
3034.983965
20
382.677584
0
POINT
5
362
100
AcDbEntity
8
DEFPOINTS
6
DOT2
62
11
100
AcDbPoint
10
3043.983965
20
382.677584
0
ENDBLK
5
363
100
AcDbEntity
8
1
100
AcDbBlockEnd
0
BLOCK
5
364
100
AcDbEntity
8
1
100
AcDbBlockBegin
2
*D59
70
65
10
0.000000
20
0.000000
3
*D
0
LINE
5
365
100
AcDbEntity
8
1
6
DOT2
62
11
100
AcDbLine
10
3036.483965
20
401.669135
11
3042.983965
21
401.669135
0
LINE
5
366
100
AcDbEntity
8
1
6
DOT2
62
11
100
AcDbLine
10
3036.483965
20
390.669135
11
3042.983965
21
390.669135
0
LINE
5
367
100
AcDbEntity
8
1
6
DOT2
62
11
100
AcDbLine
10
3040.983965
20
401.669135
11
3040.983965
21
390.669135
0
INSERT
5
368
100
AcDbEntity
8
1
6
DOT2
62
11
100
AcDbBlockReference
2
HALF
10
3040.983965
20
390.669135
41
0.116929
42
0.116929
43
0.116929
50
270.000000
0
INSERT
5
369
100
AcDbEntity
8
1
6
DOT2
62
11
100
AcDbBlockReference
2
HALF
10
3040.983965
20
401.669135
41
0.116929
42
0.116929
43
0.116929
50
90.000000
0
TEXT
5
36a
100
AcDbEntity
8
1
62
11
100
AcDbText
10
3040.953632
20
395.751103
40
0.138583
41
0.825
1
%%c2.2
50
90.000000
7
STANDARD
72
0
100
AcDbText
0
POINT
5
36b
100
AcDbEntity
8
DEFPOINTS
6
DOT2
62
11
100
AcDbPoint
10
3034.983965
20
401.669135
0
POINT
5
36c
100
AcDbEntity
8
DEFPOINTS
6
DOT2
62
11
100
AcDbPoint
10
3034.983965
20
390.669135
0
POINT
5
36d
100
AcDbEntity
8
DEFPOINTS
6
DOT2
62
11
100
AcDbPoint
10
3040.983965
20
390.669135
0
ENDBLK
5
36e
100
AcDbEntity
8
1
100
AcDbBlockEnd
0
BLOCK
5
36f
100
AcDbEntity
8
1
100
AcDbBlockBegin
2
*D60
70
65
10
0.000000
20
0.000000
3
*D
0
LINE
5
370
100
AcDbEntity
8
1
6
DOT2
62
11
100
AcDbLine
10
3034.653235
20
379.157142
11
3034.653235
21
369.657142
0
LINE
5
371
100
AcDbEntity
8
1
6
DOT2
62
11
100
AcDbLine
10
3025.146340
20
395.157142
11
3025.146340
21
369.657142
0
LINE
5
372
100
AcDbEntity
8
1
6
DOT2
62
11
100
AcDbLine
10
3034.653235
20
371.657142
11
3025.146340
21
371.657142
0
INSERT
5
373
100
AcDbEntity
8
1
6
DOT2
62
11
100
AcDbBlockReference
2
HALF
10
3034.653235
20
371.657142
41
0.116929
42
0.116929
43
0.116929
0
INSERT
5
374
100
AcDbEntity
8
1
6
DOT2
62
11
100
AcDbBlockReference
2
HALF
10
3025.146340
20
371.657142
41
0.116929
42
0.116929
43
0.116929
50
180.000000
0
TEXT
5
375
100
AcDbEntity
8
1
62
11
100
AcDbText
10
3028.790925
20
371.687474
40
0.138583
41
0.825
1
1.9
7
STANDARD
72
0
100
AcDbText
0
POINT
5
376
100
AcDbEntity
8
DEFPOINTS
6
DOT2
62
11
100
AcDbPoint
10
3034.653235
20
380.657142
0
POINT
5
377
100
AcDbEntity
8
DEFPOINTS
6
DOT2
62
11
100
AcDbPoint
10
3025.146340
20
396.657142
0
POINT
5
378
100
AcDbEntity
8
DEFPOINTS
6
DOT2
62
11
100
AcDbPoint
10
3025.146340
20
371.657142
0
ENDBLK
5
379
100
AcDbEntity
8
1
100
AcDbBlockEnd
0
BLOCK
5
37a
100
AcDbEntity
8
1
100
AcDbBlockBegin
2
*D61
70
65
10
0.000000
20
0.000000
3
*D
0
LINE
5
37b
100
AcDbEntity
8
1
6
DOT2
62
11
100
AcDbLine
10
3034.653235
20
379.157142
11
3034.653235
21
375.657142
0
LINE
5
37c
100
AcDbEntity
8
1
6
DOT2
62
11
100
AcDbLine
10
3033.653235
20
376.157142
11
3033.653235
21
375.657142
0
LINE
5
37d
100
AcDbEntity
8
1
6
DOT2
62
11
100
AcDbLine
10
3033.653235
20
377.657142
11
3031.080155
21
377.657142
0
LINE
5
37e
100
AcDbEntity
8
1
6
DOT2
62
11
100
AcDbLine
10
3034.653235
20
377.657142
11
3037.226316
21
377.657142
0
LINE
5
37f
100
AcDbEntity
8
1
6
DOT2
62
11
100
AcDbLine
10
3034.653235
20
377.657142
11
3033.653235
21
377.657142
0
INSERT
5
380
100
AcDbEntity
8
1
6
DOT2
62
11
100
AcDbBlockReference
2
HALF
10
3034.653235
20
377.657142
41
0.116929
42
0.116929
43
0.116929
50
180.000000
0
INSERT
5
381
100
AcDbEntity
8
1
6
DOT2
62
11
100
AcDbBlockReference
2
HALF
10
3033.653235
20
377.657142
41
0.116929
42
0.116929
43
0.116929
0
TEXT
5
382
100
AcDbEntity
8
1
62
11
100
AcDbText
10
3039.640366
20
377.687474
40
0.138583
41
0.825
1
0.2
7
STANDARD
72
0
100
AcDbText
0
POINT
5
383
100
AcDbEntity
8
DEFPOINTS
6
DOT2
62
11
100
AcDbPoint
10
3034.653235
20
380.657142
0
POINT
5
384
100
AcDbEntity
8
DEFPOINTS
6
DOT2
62
11
100
AcDbPoint
10
3033.653235
20
377.657142
0
POINT
5
385
100
AcDbEntity
8
DEFPOINTS
6
DOT2
62
11
100
AcDbPoint
10
3033.653235
20
377.657142
0
ENDBLK
5
386
100
AcDbEntity
8
1
100
AcDbBlockEnd
0
BLOCK
5
387
100
AcDbEntity
8
1
100
AcDbBlockBegin
2
*D62
70
65
10
0.000000
20
0.000000
3
*D
0
LINE
5
388
100
AcDbEntity
8
1
6
DOT2
62
11
100
AcDbLine
10
3034.653235
20
379.157142
11
3034.653235
21
372.657142
0
LINE
5
389
100
AcDbEntity
8
1
6
DOT2
62
11
100
AcDbLine
10
3027.653235
20
382.657142
11
3027.653235
21
372.657142
0
LINE
5
38a
100
AcDbEntity
8
1
6
DOT2
62
11
100
AcDbLine
10
3034.653235
20
374.657142
11
3027.653235
21
374.657142
0
INSERT
5
38b
100
AcDbEntity
8
1
6
DOT2
62
11
100
AcDbBlockReference
2
HALF
10
3034.653235
20
374.657142
41
0.116929
42
0.116929
43
0.116929
0
INSERT
5
38c
100
AcDbEntity
8
1
6
DOT2
62
11
100
AcDbBlockReference
2
HALF
10
3027.653235
20
374.657142
41
0.116929
42
0.116929
43
0.116929
50
180.000000
0
TEXT
5
38d
100
AcDbEntity
8
1
62
11
100
AcDbText
10
3030.535911
20
374.687474
40
0.138583
41
0.825
1
1.4
7
STANDARD
72
0
100
AcDbText
0
POINT
5
38e
100
AcDbEntity
8
DEFPOINTS
6
DOT2
62
11
100
AcDbPoint
10
3034.653235
20
380.657142
0
POINT
5
38f
100
AcDbEntity
8
DEFPOINTS
6
DOT2
62
11
100
AcDbPoint
10
3027.653235
20
384.157142
0
POINT
5
390
100
AcDbEntity
8
DEFPOINTS
6
DOT2
62
11
100
AcDbPoint
10
3027.653235
20
374.657142
0
ENDBLK
5
391
100
AcDbEntity
8
1
100
AcDbBlockEnd
0
BLOCK
5
392
100
AcDbEntity
8
1
100
AcDbBlockBegin
2
*D63
70
65
10
0.000000
20
0.000000
3
*D
0
LINE
5
393
100
AcDbEntity
8
1
6
DOT2
62
11
100
AcDbLine
10
3032.980211
20
413.396762
11
3031.419954
21
415.111405
0
LINE
5
394
100
AcDbEntity
8
1
6
DOT2
62
11
100
AcDbLine
10
3031.419954
20
415.111405
11
3025.225072
21
415.111405
0
INSERT
5
395
100
AcDbEntity
8
1
6
DOT2
62
11
100
AcDbBlockReference
2
HALF
10
3032.980211
20
413.396762
41
0.116929
42
0.116929
43
0.116929
50
312.300939
0
LINE
5
396
100
AcDbEntity
8
1
6
DOT2
62
11
100
AcDbLine
10
3033.566621
20
412.657142
11
3033.739850
21
412.657142
0
LINE
5
397
100
AcDbEntity
8
1
6
DOT2
62
11
100
AcDbLine
10
3033.653235
20
412.570527
11
3033.653235
21
412.743756
0
TEXT
5
398
100
AcDbEntity
8
1
62
11
100
AcDbText
10
3028.356519
20
415.141737
40
0.138583
41
0.825
1
R1
7
STANDARD
72
0
100
AcDbText
0
POINT
5
399
100
AcDbEntity
8
DEFPOINTS
6
DOT2
62
11
100
AcDbPoint
10
3032.980211
20
413.396762
0
POINT
5
39a
100
AcDbEntity
8
DEFPOINTS
6
DOT2
62
11
100
AcDbPoint
10
3033.653235
20
412.657142
0
ENDBLK
5
39b
100
AcDbEntity
8
1
100
AcDbBlockEnd
0
BLOCK
5
39c
100
AcDbEntity
8
1
100
AcDbBlockBegin
2
*D64
70
65
10
0.000000
20
0.000000
3
*D
0
LINE
5
39d
100
AcDbEntity
8
1
6
DOT2
62
11
100
AcDbLine
10
3036.153235
20
410.157142
11
3045.653235
21
410.157142
0
LINE
5
39e
100
AcDbEntity
8
1
6
DOT2
62
11
100
AcDbLine
10
3036.153235
20
383.157142
11
3045.653235
21
383.157142
0
LINE
5
39f
100
AcDbEntity
8
1
6
DOT2
62
11
100
AcDbLine
10
3043.653235
20
410.157142
11
3043.653235
21
383.157142
0
INSERT
5
3a0
100
AcDbEntity
8
1
6
DOT2
62
11
100
AcDbBlockReference
2
HALF
10
3043.653235
20
383.157142
41
0.116929
42
0.116929
43
0.116929
50
270.000000
0
INSERT
5
3a1
100
AcDbEntity
8
1
6
DOT2
62
11
100
AcDbBlockReference
2
HALF
10
3043.653235
20
410.157142
41
0.116929
42
0.116929
43
0.116929
50
90.000000
0
TEXT
5
3a2
100
AcDbEntity
8
1
62
11
100
AcDbText
10
3043.622903
20
396.145487
40
0.138583
41
0.825
1
5.4
50
90.000000
7
STANDARD
72
0
100
AcDbText
0
POINT
5
3a3
100
AcDbEntity
8
DEFPOINTS
6
DOT2
62
11
100
AcDbPoint
10
3034.653235
20
410.157142
0
POINT
5
3a4
100
AcDbEntity
8
DEFPOINTS
6
DOT2
62
11
100
AcDbPoint
10
3034.653235
20
383.157142
0
POINT
5
3a5
100
AcDbEntity
8
DEFPOINTS
6
DOT2
62
11
100
AcDbPoint
10
3043.653235
20
383.157142
0
ENDBLK
5
3a6
100
AcDbEntity
8
1
100
AcDbBlockEnd
0
BLOCK
5
3a7
100
AcDbEntity
8
1
100
AcDbBlockBegin
2
*D65
70
65
10
0.000000
20
0.000000
3
*D
0
LINE
5
3a8
100
AcDbEntity
8
1
6
DOT2
62
11
100
AcDbLine
10
3036.153235
20
402.148693
11
3042.653235
21
402.148693
0
LINE
5
3a9
100
AcDbEntity
8
1
6
DOT2
62
11
100
AcDbLine
10
3036.153235
20
391.148693
11
3042.653235
21
391.148693
0
LINE
5
3aa
100
AcDbEntity
8
1
6
DOT2
62
11
100
AcDbLine
10
3040.653235
20
402.148693
11
3040.653235
21
391.148693
0
INSERT
5
3ab
100
AcDbEntity
8
1
6
DOT2
62
11
100
AcDbBlockReference
2
HALF
10
3040.653235
20
391.148693
41
0.116929
42
0.116929
43
0.116929
50
270.000000
0
INSERT
5
3ac
100
AcDbEntity
8
1
6
DOT2
62
11
100
AcDbBlockReference
2
HALF
10
3040.653235
20
402.148693
41
0.116929
42
0.116929
43
0.116929
50
90.000000
0
TEXT
5
3ad
100
AcDbEntity
8
1
62
11
100
AcDbText
10
3040.622903
20
396.230660
40
0.138583
41
0.825
1
%%c2.2
50
90.000000
7
STANDARD
72
0
100
AcDbText
0
POINT
5
3ae
100
AcDbEntity
8
DEFPOINTS
6
DOT2
62
11
100
AcDbPoint
10
3034.653235
20
402.148693
0
POINT
5
3af
100
AcDbEntity
8
DEFPOINTS
6
DOT2
62
11
100
AcDbPoint
10
3034.653235
20
391.148693
0
POINT
5
3b0
100
AcDbEntity
8
DEFPOINTS
6
DOT2
62
11
100
AcDbPoint
10
3040.653235
20
391.148693
0
ENDBLK
5
3b1
100
AcDbEntity
8
1
100
AcDbBlockEnd
0
BLOCK
5
3b2
100
AcDbEntity
8
1
100
AcDbBlockBegin
2
*D66
70
65
10
0.000000
20
0.000000
3
*D
0
LINE
5
3b3
100
AcDbEntity
8
1
6
DOT2
62
11
100
AcDbLine
10
3010.883212
20
549.494195
11
3010.883212
21
536.065084
0
LINE
5
3b4
100
AcDbEntity
8
1
6
DOT2
62
11
100
AcDbLine
10
3035.878181
20
548.565084
11
3035.878181
21
536.065084
0
LINE
5
3b5
100
AcDbEntity
8
1
6
DOT2
62
11
100
AcDbLine
10
3010.883212
20
538.065084
11
3035.878181
21
538.065084
0
INSERT
5
3b6
100
AcDbEntity
8
1
6
DOT2
62
11
100
AcDbBlockReference
2
HALF
10
3010.883212
20
538.065084
41
0.116929
42
0.116929
43
0.116929
50
180.000000
0
INSERT
5
3b7
100
AcDbEntity
8
1
6
DOT2
62
11
100
AcDbBlockReference
2
HALF
10
3035.878181
20
538.065084
41
0.116929
42
0.116929
43
0.116929
0
TEXT
5
3b8
100
AcDbEntity
8
1
62
11
100
AcDbText
10
3023.580889
20
538.095417
40
0.138583
41
0.825
1
25
7
STANDARD
72
0
100
AcDbText
0
POINT
5
3b9
100
AcDbEntity
8
DEFPOINTS
6
DOT2
62
11
100
AcDbPoint
10
3010.883212
20
550.994195
0
POINT
5
3ba
100
AcDbEntity
8
DEFPOINTS
6
DOT2
62
11
100
AcDbPoint
10
3035.878181
20
550.065084
0
POINT
5
3bb
100
AcDbEntity
8
DEFPOINTS
6
DOT2
62
11
100
AcDbPoint
10
3035.878181
20
538.065084
0
ENDBLK
5
3bc
100
AcDbEntity
8
1
100
AcDbBlockEnd
0
BLOCK
5
3bd
100
AcDbEntity
8
1
100
AcDbBlockBegin
2
*D67
70
65
10
0.000000
20
0.000000
3
*D
0
LINE
5
3be
100
AcDbEntity
8
1
6
DOT2
62
11
100
AcDbLine
10
3012.883212
20
553.065084
11
3012.883212
21
539.065084
0
LINE
5
3bf
100
AcDbEntity
8
1
6
DOT2
62
11
100
AcDbLine
10
3033.878181
20
553.065084
11
3033.878181
21
539.065084
0
LINE
5
3c0
100
AcDbEntity
8
1
6
DOT2
62
11
100
AcDbLine
10
3012.883212
20
541.065084
11
3033.878181
21
541.065084
0
INSERT
5
3c1
100
AcDbEntity
8
1
6
DOT2
62
11
100
AcDbBlockReference
2
HALF
10
3012.883212
20
541.065084
41
0.116929
42
0.116929
43
0.116929
50
180.000000
0
INSERT
5
3c2
100
AcDbEntity
8
1
6
DOT2
62
11
100
AcDbBlockReference
2
HALF
10
3033.878181
20
541.065084
41
0.116929
42
0.116929
43
0.116929
0
TEXT
5
3c3
100
AcDbEntity
8
1
62
11
100
AcDbText
10
3023.240710
20
541.095417
40
0.138583
41
0.825
1
21
7
STANDARD
72
0
100
AcDbText
0
POINT
5
3c4
100
AcDbEntity
8
DEFPOINTS
6
DOT2
62
11
100
AcDbPoint
10
3012.883212
20
554.565084
0
POINT
5
3c5
100
AcDbEntity
8
DEFPOINTS
6
DOT2
62
11
100
AcDbPoint
10
3033.878181
20
554.565084
0
POINT
5
3c6
100
AcDbEntity
8
DEFPOINTS
6
DOT2
62
11
100
AcDbPoint
10
3033.878181
20
541.065084
0
ENDBLK
5
3c7
100
AcDbEntity
8
1
100
AcDbBlockEnd
0
BLOCK
5
3c8
100
AcDbEntity
8
1
100
AcDbBlockBegin
2
*D68
70
65
10
0.000000
20
0.000000
3
*D
0
LINE
5
3c9
100
AcDbEntity
8
1
6
DOT2
62
11
100
AcDbLine
10
3012.154075
20
574.087147
11
3017.883212
21
570.065084
0
INSERT
5
3ca
100
AcDbEntity
8
1
6
DOT2
62
11
100
AcDbBlockReference
2
HALF
10
3012.154075
20
574.087147
41
0.116929
42
0.116929
43
0.116929
50
144.929746
0
LINE
5
3cb
100
AcDbEntity
8
1
6
DOT2
62
11
100
AcDbLine
10
3017.883212
20
570.065084
11
3012.154075
21
574.087147
0
TEXT
5
3cc
100
AcDbEntity
8
1
62
11
100
AcDbText
10
3008.456848
20
576.719797
40
0.138583
41
0.825
1
R7
50
-35.070254
7
STANDARD
72
0
100
AcDbText
0
POINT
5
3cd
100
AcDbEntity
8
DEFPOINTS
6
DOT2
62
11
100
AcDbPoint
10
3012.154075
20
574.087147
0
POINT
5
3ce
100
AcDbEntity
8
DEFPOINTS
6
DOT2
62
11
100
AcDbPoint
10
3017.883212
20
570.065084
0
ENDBLK
5
3cf
100
AcDbEntity
8
1
100
AcDbBlockEnd
0
BLOCK
5
3d0
100
AcDbEntity
8
1
100
AcDbBlockBegin
2
*D69
70
65
10
0.000000
20
0.000000
3
*D
0
LINE
5
3d1
100
AcDbEntity
8
1
6
DOT2
62
11
100
AcDbLine
10
3015.569029
20
574.497302
11
3017.883212
21
570.065084
0
INSERT
5
3d2
100
AcDbEntity
8
1
6
DOT2
62
11
100
AcDbBlockReference
2
HALF
10
3015.569029
20
574.497302
41
0.116929
42
0.116929
43
0.116929
50
117.570303
0
LINE
5
3d3
100
AcDbEntity
8
1
6
DOT2
62
11
100
AcDbLine
10
3017.883212
20
570.065084
11
3015.569029
21
574.497302
0
TEXT
5
3d4
100
AcDbEntity
8
1
62
11
100
AcDbText
10
3013.477416
20
578.568781
40
0.138583
41
0.825
1
R5
50
-62.429697
7
STANDARD
72
0
100
AcDbText
0
POINT
5
3d5
100
AcDbEntity
8
DEFPOINTS
6
DOT2
62
11
100
AcDbPoint
10
3015.569029
20
574.497302
0
POINT
5
3d6
100
AcDbEntity
8
DEFPOINTS
6
DOT2
62
11
100
AcDbPoint
10
3017.883212
20
570.065084
0
ENDBLK
5
3d7
100
AcDbEntity
8
1
100
AcDbBlockEnd
0
BLOCK
5
3d8
100
AcDbEntity
8
1
100
AcDbBlockBegin
2
*D70
70
65
10
0.000000
20
0.000000
3
*D
0
LINE
5
3d9
100
AcDbEntity
8
1
6
DOT2
62
11
100
AcDbLine
10
3029.378180
20
575.065084
11
3040.878181
21
575.065084
0
LINE
5
3da
100
AcDbEntity
8
1
6
DOT2
62
11
100
AcDbLine
10
3029.378180
20
545.315084
11
3040.878181
21
545.315084
0
LINE
5
3db
100
AcDbEntity
8
1
6
DOT2
62
11
100
AcDbLine
10
3038.878181
20
575.065084
11
3038.878181
21
545.315084
0
INSERT
5
3dc
100
AcDbEntity
8
1
6
DOT2
62
11
100
AcDbBlockReference
2
HALF
10
3038.878181
20
545.315084
41
0.116929
42
0.116929
43
0.116929
50
270.000000
0
INSERT
5
3dd
100
AcDbEntity
8
1
6
DOT2
62
11
100
AcDbBlockReference
2
HALF
10
3038.878181
20
575.065084
41
0.116929
42
0.116929
43
0.116929
50
90.000000
0
TEXT
5
3de
100
AcDbEntity
8
1
62
11
100
AcDbText
10
3038.847848
20
559.830862
40
0.138583
41
0.825
1
29.8
50
90.000000
7
STANDARD
72
0
100
AcDbText
0
POINT
5
3df
100
AcDbEntity
8
DEFPOINTS
6
DOT2
62
11
100
AcDbPoint
10
3027.878180
20
575.065084
0
POINT
5
3e0
100
AcDbEntity
8
DEFPOINTS
6
DOT2
62
11
100
AcDbPoint
10
3027.878180
20
545.315084
0
POINT
5
3e1
100
AcDbEntity
8
DEFPOINTS
6
DOT2
62
11
100
AcDbPoint
10
3038.878181
20
545.315084
0
ENDBLK
5
3e2
100
AcDbEntity
8
1
100
AcDbBlockEnd
0
BLOCK
5
3e3
100
AcDbEntity
8
1
100
AcDbBlockBegin
2
*D71
70
65
10
0.000000
20
0.000000
3
*D
0
LINE
5
3e4
100
AcDbEntity
8
1
6
DOT2
62
11
100
AcDbLine
10
3030.378181
20
577.065084
11
3043.878181
21
577.065084
0
LINE
5
3e5
100
AcDbEntity
8
1
6
DOT2
62
11
100
AcDbLine
10
3030.378181
20
543.065084
11
3043.878181
21
543.065084
0
LINE
5
3e6
100
AcDbEntity
8
1
6
DOT2
62
11
100
AcDbLine
10
3041.878181
20
577.065084
11
3041.878181
21
543.065084
0
INSERT
5
3e7
100
AcDbEntity
8
1
6
DOT2
62
11
100
AcDbBlockReference
2
HALF
10
3041.878181
20
543.065084
41
0.116929
42
0.116929
43
0.116929
50
270.000000
0
INSERT
5
3e8
100
AcDbEntity
8
1
6
DOT2
62
11
100
AcDbBlockReference
2
HALF
10
3041.878181
20
577.065084
41
0.116929
42
0.116929
43
0.116929
50
90.000000
0
TEXT
5
3e9
100
AcDbEntity
8
1
62
11
100
AcDbText
10
3041.847848
20
559.131348
40
0.138583
41
0.825
1
34
50
90.000000
7
STANDARD
72
0
100
AcDbText
0
POINT
5
3ea
100
AcDbEntity
8
DEFPOINTS
6
DOT2
62
11
100
AcDbPoint
10
3028.878181
20
577.065084
0
POINT
5
3eb
100
AcDbEntity
8
DEFPOINTS
6
DOT2
62
11
100
AcDbPoint
10
3028.878181
20
543.065084
0
POINT
5
3ec
100
AcDbEntity
8
DEFPOINTS
6
DOT2
62
11
100
AcDbPoint
10
3041.878181
20
543.065084
0
ENDBLK
5
3ed
100
AcDbEntity
8
1
100
AcDbBlockEnd
0
BLOCK
5
3ee
100
AcDbEntity
8
1
100
AcDbBlockBegin
2
*D72
70
65
10
0.000000
20
0.000000
3
*D
0
LINE
5
3ef
100
AcDbEntity
8
1
6
DOT2
62
11
100
AcDbLine
10
3031.381631
20
572.923099
11
3027.718880
21
568.830497
0
LINE
5
3f0
100
AcDbEntity
8
1
6
DOT2
62
11
100
AcDbLine
10
3027.718880
20
568.830497
11
3021.350769
21
568.830497
0
INSERT
5
3f1
100
AcDbEntity
8
1
6
DOT2
62
11
100
AcDbBlockReference
2
HALF
10
3031.381631
20
572.923099
41
0.116929
42
0.116929
43
0.116929
50
48.172438
0
LINE
5
3f2
100
AcDbEntity
8
1
6
DOT2
62
11
100
AcDbLine
10
3028.794176
20
570.128766
11
3028.967404
21
570.128766
0
LINE
5
3f3
100
AcDbEntity
8
1
6
DOT2
62
11
100
AcDbLine
10
3028.880790
20
570.042152
11
3028.880790
21
570.215380
0
TEXT
5
3f4
100
AcDbEntity
8
1
62
11
100
AcDbText
10
3030.719233
20
568.860830
40
0.138583
41
0.825
1
R3.8
7
STANDARD
72
0
100
AcDbText
0
POINT
5
3f5
100
AcDbEntity
8
DEFPOINTS
6
DOT2
62
11
100
AcDbPoint
10
3031.381631
20
572.923099
0
POINT
5
3f6
100
AcDbEntity
8
DEFPOINTS
6
DOT2
62
11
100
AcDbPoint
10
3028.880790
20
570.128766
0
ENDBLK
5
3f7
100
AcDbEntity
8
1
100
AcDbBlockEnd
0
BLOCK
5
3f8
100
AcDbEntity
8
1
100
AcDbBlockBegin
2
*D73
70
65
10
0.000000
20
0.000000
3
*D
0
LINE
5
3f9
100
AcDbEntity
8
1
6
DOT2
62
11
100
AcDbLine
10
3081.469933
20
542.565084
11
3081.469933
21
533.065084
0
LINE
5
3fa
100
AcDbEntity
8
1
6
DOT2
62
11
100
AcDbLine
10
3071.963037
20
558.565084
11
3071.963037
21
533.065084
0
LINE
5
3fb
100
AcDbEntity
8
1
6
DOT2
62
11
100
AcDbLine
10
3081.469933
20
535.065084
11
3071.963037
21
535.065084
0
INSERT
5
3fc
100
AcDbEntity
8
1
6
DOT2
62
11
100
AcDbBlockReference
2
HALF
10
3081.469933
20
535.065084
41
0.116929
42
0.116929
43
0.116929
0
INSERT
5
3fd
100
AcDbEntity
8
1
6
DOT2
62
11
100
AcDbBlockReference
2
HALF
10
3071.963037
20
535.065084
41
0.116929
42
0.116929
43
0.116929
50
180.000000
0
TEXT
5
3fe
100
AcDbEntity
8
1
62
11
100
AcDbText
10
3075.607623
20
535.095417
40
0.138583
41
0.825
1
9.5
7
STANDARD
72
0
100
AcDbText
0
POINT
5
3ff
100
AcDbEntity
8
DEFPOINTS
6
DOT2
62
11
100
AcDbPoint
10
3081.469933
20
544.065084
0
POINT
5
400
100
AcDbEntity
8
DEFPOINTS
6
DOT2
62
11
100
AcDbPoint
10
3071.963037
20
560.065084
0
POINT
5
401
100
AcDbEntity
8
DEFPOINTS
6
DOT2
62
11
100
AcDbPoint
10
3071.963037
20
535.065084
0
ENDBLK
5
402
100
AcDbEntity
8
1
100
AcDbBlockEnd
0
BLOCK
5
403
100
AcDbEntity
8
1
100
AcDbBlockBegin
2
*D74
70
65
10
0.000000
20
0.000000
3
*D
0
LINE
5
404
100
AcDbEntity
8
1
6
DOT2
62
11
100
AcDbLine
10
3081.469933
20
542.565084
11
3081.469933
21
536.065084
0
LINE
5
405
100
AcDbEntity
8
1
6
DOT2
62
11
100
AcDbLine
10
3074.469933
20
546.065084
11
3074.469933
21
536.065084
0
LINE
5
406
100
AcDbEntity
8
1
6
DOT2
62
11
100
AcDbLine
10
3081.469933
20
538.065084
11
3074.469933
21
538.065084
0
INSERT
5
407
100
AcDbEntity
8
1
6
DOT2
62
11
100
AcDbBlockReference
2
HALF
10
3081.469933
20
538.065084
41
0.116929
42
0.116929
43
0.116929
0
INSERT
5
408
100
AcDbEntity
8
1
6
DOT2
62
11
100
AcDbBlockReference
2
HALF
10
3074.469933
20
538.065084
41
0.116929
42
0.116929
43
0.116929
50
180.000000
0
TEXT
5
409
100
AcDbEntity
8
1
62
11
100
AcDbText
10
3077.446846
20
538.095417
40
0.138583
41
0.825
1
7
7
STANDARD
72
0
100
AcDbText
0
POINT
5
40a
100
AcDbEntity
8
DEFPOINTS
6
DOT2
62
11
100
AcDbPoint
10
3081.469933
20
544.065084
0
POINT
5
40b
100
AcDbEntity
8
DEFPOINTS
6
DOT2
62
11
100
AcDbPoint
10
3074.469933
20
547.565084
0
POINT
5
40c
100
AcDbEntity
8
DEFPOINTS
6
DOT2
62
11
100
AcDbPoint
10
3074.469933
20
538.065084
0
ENDBLK
5
40d
100
AcDbEntity
8
1
100
AcDbBlockEnd
0
BLOCK
5
40e
100
AcDbEntity
8
1
100
AcDbBlockBegin
2
*D75
70
65
10
0.000000
20
0.000000
3
*D
0
LINE
5
40f
100
AcDbEntity
8
1
6
DOT2
62
11
100
AcDbLine
10
3081.469933
20
542.565084
11
3081.469933
21
539.065084
0
LINE
5
410
100
AcDbEntity
8
1
6
DOT2
62
11
100
AcDbLine
10
3080.469933
20
539.565084
11
3080.469933
21
539.065084
0
LINE
5
411
100
AcDbEntity
8
1
6
DOT2
62
11
100
AcDbLine
10
3080.469933
20
541.065084
11
3077.896853
21
541.065084
0
LINE
5
412
100
AcDbEntity
8
1
6
DOT2
62
11
100
AcDbLine
10
3081.469933
20
541.065084
11
3084.043014
21
541.065084
0
LINE
5
413
100
AcDbEntity
8
1
6
DOT2
62
11
100
AcDbLine
10
3081.469933
20
541.065084
11
3080.469933
21
541.065084
0
INSERT
5
414
100
AcDbEntity
8
1
6
DOT2
62
11
100
AcDbBlockReference
2
HALF
10
3081.469933
20
541.065084
41
0.116929
42
0.116929
43
0.116929
50
180.000000
0
INSERT
5
415
100
AcDbEntity
8
1
6
DOT2
62
11
100
AcDbBlockReference
2
HALF
10
3080.469933
20
541.065084
41
0.116929
42
0.116929
43
0.116929
0
TEXT
5
416
100
AcDbEntity
8
1
62
11
100
AcDbText
10
3086.457064
20
541.095417
40
0.138583
41
0.825
1
1
7
STANDARD
72
0
100
AcDbText
0
POINT
5
417
100
AcDbEntity
8
DEFPOINTS
6
DOT2
62
11
100
AcDbPoint
10
3081.469933
20
544.065084
0
POINT
5
418
100
AcDbEntity
8
DEFPOINTS
6
DOT2
62
11
100
AcDbPoint
10
3080.469933
20
541.065084
0
POINT
5
419
100
AcDbEntity
8
DEFPOINTS
6
DOT2
62
11
100
AcDbPoint
10
3080.469933
20
541.065084
0
ENDBLK
5
41a
100
AcDbEntity
8
1
100
AcDbBlockEnd
0
BLOCK
5
41b
100
AcDbEntity
8
1
100
AcDbBlockBegin
2
*D76
70
65
10
0.000000
20
0.000000
3
*D
0
LINE
5
41c
100
AcDbEntity
8
1
6
DOT2
62
11
100
AcDbLine
10
3079.796909
20
576.804704
11
3078.236652
21
578.519348
0
LINE
5
41d
100
AcDbEntity
8
1
6
DOT2
62
11
100
AcDbLine
10
3078.236652
20
578.519348
11
3072.041770
21
578.519348
0
INSERT
5
41e
100
AcDbEntity
8
1
6
DOT2
62
11
100
AcDbBlockReference
2
HALF
10
3079.796909
20
576.804704
41
0.116929
42
0.116929
43
0.116929
50
312.300939
0
LINE
5
41f
100
AcDbEntity
8
1
6
DOT2
62
11
100
AcDbLine
10
3080.383319
20
576.065084
11
3080.556548
21
576.065084
0
LINE
5
420
100
AcDbEntity
8
1
6
DOT2
62
11
100
AcDbLine
10
3080.469933
20
575.978470
11
3080.469933
21
576.151698
0
TEXT
5
421
100
AcDbEntity
8
1
62
11
100
AcDbText
10
3075.173217
20
578.549680
40
0.138583
41
0.825
1
R1
7
STANDARD
72
0
100
AcDbText
0
POINT
5
422
100
AcDbEntity
8
DEFPOINTS
6
DOT2
62
11
100
AcDbPoint
10
3079.796909
20
576.804704
0
POINT
5
423
100
AcDbEntity
8
DEFPOINTS
6
DOT2
62
11
100
AcDbPoint
10
3080.469933
20
576.065084
0
ENDBLK
5
424
100
AcDbEntity
8
1
100
AcDbBlockEnd
0
BLOCK
5
425
100
AcDbEntity
8
1
100
AcDbBlockBegin
2
*D77
70
65
10
0.000000
20
0.000000
3
*D
0
LINE
5
426
100
AcDbEntity
8
1
6
DOT2
62
11
100
AcDbLine
10
3082.969933
20
573.565084
11
3092.469933
21
573.565084
0
LINE
5
427
100
AcDbEntity
8
1
6
DOT2
62
11
100
AcDbLine
10
3082.969933
20
546.565084
11
3092.469933
21
546.565084
0
LINE
5
428
100
AcDbEntity
8
1
6
DOT2
62
11
100
AcDbLine
10
3090.469933
20
573.565084
11
3090.469933
21
546.565084
0
INSERT
5
429
100
AcDbEntity
8
1
6
DOT2
62
11
100
AcDbBlockReference
2
HALF
10
3090.469933
20
546.565084
41
0.116929
42
0.116929
43
0.116929
50
270.000000
0
INSERT
5
42a
100
AcDbEntity
8
1
6
DOT2
62
11
100
AcDbBlockReference
2
HALF
10
3090.469933
20
573.565084
41
0.116929
42
0.116929
43
0.116929
50
90.000000
0
TEXT
5
42b
100
AcDbEntity
8
1
62
11
100
AcDbText
10
3090.439601
20
559.600547
40
0.138583
41
0.825
1
27
50
90.000000
7
STANDARD
72
0
100
AcDbText
0
POINT
5
42c
100
AcDbEntity
8
DEFPOINTS
6
DOT2
62
11
100
AcDbPoint
10
3081.469933
20
573.565084
0
POINT
5
42d
100
AcDbEntity
8
DEFPOINTS
6
DOT2
62
11
100
AcDbPoint
10
3081.469933
20
546.565084
0
POINT
5
42e
100
AcDbEntity
8
DEFPOINTS
6
DOT2
62
11
100
AcDbPoint
10
3090.469933
20
546.565084
0
ENDBLK
5
42f
100
AcDbEntity
8
1
100
AcDbBlockEnd
0
BLOCK
5
430
100
AcDbEntity
8
1
100
AcDbBlockBegin
2
*D78
70
65
10
0.000000
20
0.000000
3
*D
0
LINE
5
431
100
AcDbEntity
8
1
6
DOT2
62
11
100
AcDbLine
10
3082.969933
20
565.556635
11
3089.469933
21
565.556635
0
LINE
5
432
100
AcDbEntity
8
1
6
DOT2
62
11
100
AcDbLine
10
3082.969933
20
554.556635
11
3089.469933
21
554.556635
0
LINE
5
433
100
AcDbEntity
8
1
6
DOT2
62
11
100
AcDbLine
10
3087.469933
20
565.556635
11
3087.469933
21
554.556635
0
INSERT
5
434
100
AcDbEntity
8
1
6
DOT2
62
11
100
AcDbBlockReference
2
HALF
10
3087.469933
20
554.556635
41
0.116929
42
0.116929
43
0.116929
50
270.000000
0
INSERT
5
435
100
AcDbEntity
8
1
6
DOT2
62
11
100
AcDbBlockReference
2
HALF
10
3087.469933
20
565.556635
41
0.116929
42
0.116929
43
0.116929
50
90.000000
0
TEXT
5
436
100
AcDbEntity
8
1
62
11
100
AcDbText
10
3087.439601
20
559.685721
40
0.138583
41
0.825
1
%%c11
50
90.000000
7
STANDARD
72
0
100
AcDbText
0
POINT
5
437
100
AcDbEntity
8
DEFPOINTS
6
DOT2
62
11
100
AcDbPoint
10
3081.469933
20
565.556635
0
POINT
5
438
100
AcDbEntity
8
DEFPOINTS
6
DOT2
62
11
100
AcDbPoint
10
3081.469933
20
554.556635
0
POINT
5
439
100
AcDbEntity
8
DEFPOINTS
6
DOT2
62
11
100
AcDbPoint
10
3087.469933
20
554.556635
0
ENDBLK
5
43a
100
AcDbEntity
8
1
100
AcDbBlockEnd
0
BLOCK
5
43b
100
AcDbEntity
8
1
100
AcDbBlockBegin
2
*D79
70
65
10
0.000000
20
0.000000
3
*D
0
LINE
5
43c
100
AcDbEntity
8
1
6
DOT2
62
11
100
AcDbLine
10
2504.622412
20
233.269188
11
2504.622412
21
219.269188
0
LINE
5
43d
100
AcDbEntity
8
1
6
DOT2
62
11
100
AcDbLine
10
2525.617380
20
233.269188
11
2525.617380
21
219.269188
0
LINE
5
43e
100
AcDbEntity
8
1
6
DOT2
62
11
100
AcDbLine
10
2504.622412
20
221.269188
11
2525.617380
21
221.269188
0
INSERT
5
43f
100
AcDbEntity
8
1
6
DOT2
62
11
100
AcDbBlockReference
2
HALF
10
2504.622412
20
221.269188
41
0.116929
42
0.116929
43
0.116929
50
180.000000
0
INSERT
5
440
100
AcDbEntity
8
1
6
DOT2
62
11
100
AcDbBlockReference
2
HALF
10
2525.617380
20
221.269188
41
0.116929
42
0.116929
43
0.116929
0
TEXT
5
441
100
AcDbEntity
8
1
62
11
100
AcDbText
10
2514.979910
20
221.299520
40
0.138583
41
0.825
1
21
7
STANDARD
72
0
100
AcDbText
0
POINT
5
442
100
AcDbEntity
8
DEFPOINTS
6
DOT2
62
11
100
AcDbPoint
10
2504.622412
20
234.769188
0
POINT
5
443
100
AcDbEntity
8
DEFPOINTS
6
DOT2
62
11
100
AcDbPoint
10
2525.617380
20
234.769188
0
POINT
5
444
100
AcDbEntity
8
DEFPOINTS
6
DOT2
62
11
100
AcDbPoint
10
2525.617380
20
221.269188
0
ENDBLK
5
445
100
AcDbEntity
8
1
100
AcDbBlockEnd
0
BLOCK
5
446
100
AcDbEntity
8
1
100
AcDbBlockBegin
2
*D80
70
65
10
0.000000
20
0.000000
3
*D
0
LINE
5
447
100
AcDbEntity
8
1
6
DOT2
62
11
100
AcDbLine
10
2502.622412
20
229.698298
11
2502.622412
21
216.269188
0
LINE
5
448
100
AcDbEntity
8
1
6
DOT2
62
11
100
AcDbLine
10
2527.617380
20
228.769188
11
2527.617380
21
216.269188
0
LINE
5
449
100
AcDbEntity
8
1
6
DOT2
62
11
100
AcDbLine
10
2502.622412
20
218.269188
11
2527.617380
21
218.269188
0
INSERT
5
44a
100
AcDbEntity
8
1
6
DOT2
62
11
100
AcDbBlockReference
2
HALF
10
2502.622412
20
218.269188
41
0.116929
42
0.116929
43
0.116929
50
180.000000
0
INSERT
5
44b
100
AcDbEntity
8
1
6
DOT2
62
11
100
AcDbBlockReference
2
HALF
10
2527.617380
20
218.269188
41
0.116929
42
0.116929
43
0.116929
0
TEXT
5
44c
100
AcDbEntity
8
1
62
11
100
AcDbText
10
2515.320089
20
218.299520
40
0.138583
41
0.825
1
25
7
STANDARD
72
0
100
AcDbText
0
POINT
5
44d
100
AcDbEntity
8
DEFPOINTS
6
DOT2
62
11
100
AcDbPoint
10
2502.622412
20
231.198298
0
POINT
5
44e
100
AcDbEntity
8
DEFPOINTS
6
DOT2
62
11
100
AcDbPoint
10
2527.617380
20
230.269188
0
POINT
5
44f
100
AcDbEntity
8
DEFPOINTS
6
DOT2
62
11
100
AcDbPoint
10
2527.617380
20
218.269188
0
ENDBLK
5
450
100
AcDbEntity
8
1
100
AcDbBlockEnd
0
BLOCK
5
451
100
AcDbEntity
8
1
100
AcDbBlockBegin
2
*D81
70
65
10
0.000000
20
0.000000
3
*D
0
LINE
5
452
100
AcDbEntity
8
1
6
DOT2
62
11
100
AcDbLine
10
2503.893275
20
254.291251
11
2509.622412
21
250.269188
0
INSERT
5
453
100
AcDbEntity
8
1
6
DOT2
62
11
100
AcDbBlockReference
2
HALF
10
2503.893275
20
254.291251
41
0.116929
42
0.116929
43
0.116929
50
144.929746
0
LINE
5
454
100
AcDbEntity
8
1
6
DOT2
62
11
100
AcDbLine
10
2509.622412
20
250.269188
11
2503.893275
21
254.291251
0
TEXT
5
455
100
AcDbEntity
8
1
62
11
100
AcDbText
10
2500.196047
20
256.923900
40
0.138583
41
0.825
1
R7
50
-35.070254
7
STANDARD
72
0
100
AcDbText
0
POINT
5
456
100
AcDbEntity
8
DEFPOINTS
6
DOT2
62
11
100
AcDbPoint
10
2503.893275
20
254.291251
0
POINT
5
457
100
AcDbEntity
8
DEFPOINTS
6
DOT2
62
11
100
AcDbPoint
10
2509.622412
20
250.269188
0
ENDBLK
5
458
100
AcDbEntity
8
1
100
AcDbBlockEnd
0
BLOCK
5
459
100
AcDbEntity
8
1
100
AcDbBlockBegin
2
*D82
70
65
10
0.000000
20
0.000000
3
*D
0
LINE
5
45a
100
AcDbEntity
8
1
6
DOT2
62
11
100
AcDbLine
10
2507.308229
20
254.701406
11
2509.622412
21
250.269188
0
INSERT
5
45b
100
AcDbEntity
8
1
6
DOT2
62
11
100
AcDbBlockReference
2
HALF
10
2507.308229
20
254.701406
41
0.116929
42
0.116929
43
0.116929
50
117.570303
0
LINE
5
45c
100
AcDbEntity
8
1
6
DOT2
62
11
100
AcDbLine
10
2509.622412
20
250.269188
11
2507.308229
21
254.701406
0
TEXT
5
45d
100
AcDbEntity
8
1
62
11
100
AcDbText
10
2505.216615
20
258.772884
40
0.138583
41
0.825
1
R5
50
-62.429697
7
STANDARD
72
0
100
AcDbText
0
POINT
5
45e
100
AcDbEntity
8
DEFPOINTS
6
DOT2
62
11
100
AcDbPoint
10
2507.308229
20
254.701406
0
POINT
5
45f
100
AcDbEntity
8
DEFPOINTS
6
DOT2
62
11
100
AcDbPoint
10
2509.622412
20
250.269188
0
ENDBLK
5
460
100
AcDbEntity
8
1
100
AcDbBlockEnd
0
BLOCK
5
461
100
AcDbEntity
8
1
100
AcDbBlockBegin
2
*D83
70
65
10
0.000000
20
0.000000
3
*D
0
LINE
5
462
100
AcDbEntity
8
1
6
DOT2
62
11
100
AcDbLine
10
2521.117380
20
255.269188
11
2532.617380
21
255.269188
0
LINE
5
463
100
AcDbEntity
8
1
6
DOT2
62
11
100
AcDbLine
10
2521.117380
20
225.519188
11
2532.617380
21
225.519188
0
LINE
5
464
100
AcDbEntity
8
1
6
DOT2
62
11
100
AcDbLine
10
2530.617380
20
255.269188
11
2530.617380
21
225.519188
0
INSERT
5
465
100
AcDbEntity
8
1
6
DOT2
62
11
100
AcDbBlockReference
2
HALF
10
2530.617380
20
225.519188
41
0.116929
42
0.116929
43
0.116929
50
270.000000
0
INSERT
5
466
100
AcDbEntity
8
1
6
DOT2
62
11
100
AcDbBlockReference
2
HALF
10
2530.617380
20
255.269188
41
0.116929
42
0.116929
43
0.116929
50
90.000000
0
TEXT
5
467
100
AcDbEntity
8
1
62
11
100
AcDbText
10
2530.587048
20
240.034965
40
0.138583
41
0.825
1
29.8
50
90.000000
7
STANDARD
72
0
100
AcDbText
0
POINT
5
468
100
AcDbEntity
8
DEFPOINTS
6
DOT2
62
11
100
AcDbPoint
10
2519.617380
20
255.269188
0
POINT
5
469
100
AcDbEntity
8
DEFPOINTS
6
DOT2
62
11
100
AcDbPoint
10
2519.617380
20
225.519188
0
POINT
5
46a
100
AcDbEntity
8
DEFPOINTS
6
DOT2
62
11
100
AcDbPoint
10
2530.617380
20
225.519188
0
ENDBLK
5
46b
100
AcDbEntity
8
1
100
AcDbBlockEnd
0
BLOCK
5
46c
100
AcDbEntity
8
1
100
AcDbBlockBegin
2
*D84
70
65
10
0.000000
20
0.000000
3
*D
0
LINE
5
46d
100
AcDbEntity
8
1
6
DOT2
62
11
100
AcDbLine
10
2522.117380
20
257.269188
11
2535.617380
21
257.269188
0
LINE
5
46e
100
AcDbEntity
8
1
6
DOT2
62
11
100
AcDbLine
10
2522.117380
20
223.269188
11
2535.617380
21
223.269188
0
LINE
5
46f
100
AcDbEntity
8
1
6
DOT2
62
11
100
AcDbLine
10
2533.617380
20
257.269188
11
2533.617380
21
223.269188
0
INSERT
5
470
100
AcDbEntity
8
1
6
DOT2
62
11
100
AcDbBlockReference
2
HALF
10
2533.617380
20
223.269188
41
0.116929
42
0.116929
43
0.116929
50
270.000000
0
INSERT
5
471
100
AcDbEntity
8
1
6
DOT2
62
11
100
AcDbBlockReference
2
HALF
10
2533.617380
20
257.269188
41
0.116929
42
0.116929
43
0.116929
50
90.000000
0
TEXT
5
472
100
AcDbEntity
8
1
62
11
100
AcDbText
10
2533.587048
20
239.335451
40
0.138583
41
0.825
1
34
50
90.000000
7
STANDARD
72
0
100
AcDbText
0
POINT
5
473
100
AcDbEntity
8
DEFPOINTS
6
DOT2
62
11
100
AcDbPoint
10
2520.617380
20
257.269188
0
POINT
5
474
100
AcDbEntity
8
DEFPOINTS
6
DOT2
62
11
100
AcDbPoint
10
2520.617380
20
223.269188
0
POINT
5
475
100
AcDbEntity
8
DEFPOINTS
6
DOT2
62
11
100
AcDbPoint
10
2533.617380
20
223.269188
0
ENDBLK
5
476
100
AcDbEntity
8
1
100
AcDbBlockEnd
0
BLOCK
5
477
100
AcDbEntity
8
1
100
AcDbBlockBegin
2
*D85
70
65
10
0.000000
20
0.000000
3
*D
0
LINE
5
478
100
AcDbEntity
8
1
6
DOT2
62
11
100
AcDbLine
10
2523.120831
20
253.127202
11
2519.458080
21
249.034601
0
LINE
5
479
100
AcDbEntity
8
1
6
DOT2
62
11
100
AcDbLine
10
2519.458080
20
249.034601
11
2513.089969
21
249.034601
0
INSERT
5
47a
100
AcDbEntity
8
1
6
DOT2
62
11
100
AcDbBlockReference
2
HALF
10
2523.120831
20
253.127202
41
0.116929
42
0.116929
43
0.116929
50
48.172438
0
LINE
5
47b
100
AcDbEntity
8
1
6
DOT2
62
11
100
AcDbLine
10
2520.533376
20
250.332870
11
2520.706604
21
250.332870
0
LINE
5
47c
100
AcDbEntity
8
1
6
DOT2
62
11
100
AcDbLine
10
2520.619990
20
250.246255
11
2520.619990
21
250.419484
0
TEXT
5
47d
100
AcDbEntity
8
1
62
11
100
AcDbText
10
2522.458433
20
249.064933
40
0.138583
41
0.825
1
R3.8
7
STANDARD
72
0
100
AcDbText
0
POINT
5
47e
100
AcDbEntity
8
DEFPOINTS
6
DOT2
62
11
100
AcDbPoint
10
2523.120831
20
253.127202
0
POINT
5
47f
100
AcDbEntity
8
DEFPOINTS
6
DOT2
62
11
100
AcDbPoint
10
2520.619990
20
250.332870
0
ENDBLK
5
480
100
AcDbEntity
8
1
100
AcDbBlockEnd
0
BLOCK
5
481
100
AcDbEntity
8
1
100
AcDbBlockBegin
2
*D86
70
65
10
0.000000
20
0.000000
3
*D
0
LINE
5
482
100
AcDbEntity
8
1
6
DOT2
62
11
100
AcDbLine
10
2504.291683
20
233.748745
11
2504.291683
21
219.748745
0
LINE
5
483
100
AcDbEntity
8
1
6
DOT2
62
11
100
AcDbLine
10
2525.286651
20
233.748745
11
2525.286651
21
219.748745
0
LINE
5
484
100
AcDbEntity
8
1
6
DOT2
62
11
100
AcDbLine
10
2504.291683
20
221.748745
11
2525.286651
21
221.748745
0
INSERT
5
485
100
AcDbEntity
8
1
6
DOT2
62
11
100
AcDbBlockReference
2
HALF
10
2504.291683
20
221.748745
41
0.116929
42
0.116929
43
0.116929
50
180.000000
0
INSERT
5
486
100
AcDbEntity
8
1
6
DOT2
62
11
100
AcDbBlockReference
2
HALF
10
2525.286651
20
221.748745
41
0.116929
42
0.116929
43
0.116929
0
TEXT
5
487
100
AcDbEntity
8
1
62
11
100
AcDbText
10
2514.649181
20
221.779077
40
0.138583
41
0.825
1
21
7
STANDARD
72
0
100
AcDbText
0
POINT
5
488
100
AcDbEntity
8
DEFPOINTS
6
DOT2
62
11
100
AcDbPoint
10
2504.291683
20
235.248745
0
POINT
5
489
100
AcDbEntity
8
DEFPOINTS
6
DOT2
62
11
100
AcDbPoint
10
2525.286651
20
235.248745
0
POINT
5
48a
100
AcDbEntity
8
DEFPOINTS
6
DOT2
62
11
100
AcDbPoint
10
2525.286651
20
221.748745
0
ENDBLK
5
48b
100
AcDbEntity
8
1
100
AcDbBlockEnd
0
BLOCK
5
48c
100
AcDbEntity
8
1
100
AcDbBlockBegin
2
*D87
70
65
10
0.000000
20
0.000000
3
*D
0
LINE
5
48d
100
AcDbEntity
8
1
6
DOT2
62
11
100
AcDbLine
10
2502.291683
20
230.177855
11
2502.291683
21
216.748745
0
LINE
5
48e
100
AcDbEntity
8
1
6
DOT2
62
11
100
AcDbLine
10
2527.286651
20
229.248745
11
2527.286651
21
216.748745
0
LINE
5
48f
100
AcDbEntity
8
1
6
DOT2
62
11
100
AcDbLine
10
2502.291683
20
218.748745
11
2527.286651
21
218.748745
0
INSERT
5
490
100
AcDbEntity
8
1
6
DOT2
62
11
100
AcDbBlockReference
2
HALF
10
2502.291683
20
218.748745
41
0.116929
42
0.116929
43
0.116929
50
180.000000
0
INSERT
5
491
100
AcDbEntity
8
1
6
DOT2
62
11
100
AcDbBlockReference
2
HALF
10
2527.286651
20
218.748745
41
0.116929
42
0.116929
43
0.116929
0
TEXT
5
492
100
AcDbEntity
8
1
62
11
100
AcDbText
10
2514.989359
20
218.779077
40
0.138583
41
0.825
1
25
7
STANDARD
72
0
100
AcDbText
0
POINT
5
493
100
AcDbEntity
8
DEFPOINTS
6
DOT2
62
11
100
AcDbPoint
10
2502.291683
20
231.677855
0
POINT
5
494
100
AcDbEntity
8
DEFPOINTS
6
DOT2
62
11
100
AcDbPoint
10
2527.286651
20
230.748745
0
POINT
5
495
100
AcDbEntity
8
DEFPOINTS
6
DOT2
62
11
100
AcDbPoint
10
2527.286651
20
218.748745
0
ENDBLK
5
496
100
AcDbEntity
8
1
100
AcDbBlockEnd
0
BLOCK
5
497
100
AcDbEntity
8
1
100
AcDbBlockBegin
2
*D88
70
65
10
0.000000
20
0.000000
3
*D
0
LINE
5
498
100
AcDbEntity
8
1
6
DOT2
62
11
100
AcDbLine
10
2503.562546
20
254.770808
11
2509.291683
21
250.748745
0
INSERT
5
499
100
AcDbEntity
8
1
6
DOT2
62
11
100
AcDbBlockReference
2
HALF
10
2503.562546
20
254.770808
41
0.116929
42
0.116929
43
0.116929
50
144.929746
0
LINE
5
49a
100
AcDbEntity
8
1
6
DOT2
62
11
100
AcDbLine
10
2509.291683
20
250.748745
11
2503.562546
21
254.770808
0
TEXT
5
49b
100
AcDbEntity
8
1
62
11
100
AcDbText
10
2499.865318
20
257.403457
40
0.138583
41
0.825
1
R7
50
-35.070254
7
STANDARD
72
0
100
AcDbText
0
POINT
5
49c
100
AcDbEntity
8
DEFPOINTS
6
DOT2
62
11
100
AcDbPoint
10
2503.562546
20
254.770808
0
POINT
5
49d
100
AcDbEntity
8
DEFPOINTS
6
DOT2
62
11
100
AcDbPoint
10
2509.291683
20
250.748745
0
ENDBLK
5
49e
100
AcDbEntity
8
1
100
AcDbBlockEnd
0
BLOCK
5
49f
100
AcDbEntity
8
1
100
AcDbBlockBegin
2
*D89
70
65
10
0.000000
20
0.000000
3
*D
0
LINE
5
4a0
100
AcDbEntity
8
1
6
DOT2
62
11
100
AcDbLine
10
2506.977500
20
255.180963
11
2509.291683
21
250.748745
0
INSERT
5
4a1
100
AcDbEntity
8
1
6
DOT2
62
11
100
AcDbBlockReference
2
HALF
10
2506.977500
20
255.180963
41
0.116929
42
0.116929
43
0.116929
50
117.570303
0
LINE
5
4a2
100
AcDbEntity
8
1
6
DOT2
62
11
100
AcDbLine
10
2509.291683
20
250.748745
11
2506.977500
21
255.180963
0
TEXT
5
4a3
100
AcDbEntity
8
1
62
11
100
AcDbText
10
2504.885886
20
259.252442
40
0.138583
41
0.825
1
R5
50
-62.429697
7
STANDARD
72
0
100
AcDbText
0
POINT
5
4a4
100
AcDbEntity
8
DEFPOINTS
6
DOT2
62
11
100
AcDbPoint
10
2506.977500
20
255.180963
0
POINT
5
4a5
100
AcDbEntity
8
DEFPOINTS
6
DOT2
62
11
100
AcDbPoint
10
2509.291683
20
250.748745
0
ENDBLK
5
4a6
100
AcDbEntity
8
1
100
AcDbBlockEnd
0
BLOCK
5
4a7
100
AcDbEntity
8
1
100
AcDbBlockBegin
2
*D90
70
65
10
0.000000
20
0.000000
3
*D
0
LINE
5
4a8
100
AcDbEntity
8
1
6
DOT2
62
11
100
AcDbLine
10
2520.786651
20
255.748745
11
2532.286651
21
255.748745
0
LINE
5
4a9
100
AcDbEntity
8
1
6
DOT2
62
11
100
AcDbLine
10
2520.786651
20
225.998745
11
2532.286651
21
225.998745
0
LINE
5
4aa
100
AcDbEntity
8
1
6
DOT2
62
11
100
AcDbLine
10
2530.286651
20
255.748745
11
2530.286651
21
225.998745
0
INSERT
5
4ab
100
AcDbEntity
8
1
6
DOT2
62
11
100
AcDbBlockReference
2
HALF
10
2530.286651
20
225.998745
41
0.116929
42
0.116929
43
0.116929
50
270.000000
0
INSERT
5
4ac
100
AcDbEntity
8
1
6
DOT2
62
11
100
AcDbBlockReference
2
HALF
10
2530.286651
20
255.748745
41
0.116929
42
0.116929
43
0.116929
50
90.000000
0
TEXT
5
4ad
100
AcDbEntity
8
1
62
11
100
AcDbText
10
2530.256319
20
240.514522
40
0.138583
41
0.825
1
29.8
50
90.000000
7
STANDARD
72
0
100
AcDbText
0
POINT
5
4ae
100
AcDbEntity
8
DEFPOINTS
6
DOT2
62
11
100
AcDbPoint
10
2519.286651
20
255.748745
0
POINT
5
4af
100
AcDbEntity
8
DEFPOINTS
6
DOT2
62
11
100
AcDbPoint
10
2519.286651
20
225.998745
0
POINT
5
4b0
100
AcDbEntity
8
DEFPOINTS
6
DOT2
62
11
100
AcDbPoint
10
2530.286651
20
225.998745
0
ENDBLK
5
4b1
100
AcDbEntity
8
1
100
AcDbBlockEnd
0
BLOCK
5
4b2
100
AcDbEntity
8
1
100
AcDbBlockBegin
2
*D91
70
65
10
0.000000
20
0.000000
3
*D
0
LINE
5
4b3
100
AcDbEntity
8
1
6
DOT2
62
11
100
AcDbLine
10
2521.786651
20
257.748745
11
2535.286651
21
257.748745
0
LINE
5
4b4
100
AcDbEntity
8
1
6
DOT2
62
11
100
AcDbLine
10
2521.786651
20
223.748745
11
2535.286651
21
223.748745
0
LINE
5
4b5
100
AcDbEntity
8
1
6
DOT2
62
11
100
AcDbLine
10
2533.286651
20
257.748745
11
2533.286651
21
223.748745
0
INSERT
5
4b6
100
AcDbEntity
8
1
6
DOT2
62
11
100
AcDbBlockReference
2
HALF
10
2533.286651
20
223.748745
41
0.116929
42
0.116929
43
0.116929
50
270.000000
0
INSERT
5
4b7
100
AcDbEntity
8
1
6
DOT2
62
11
100
AcDbBlockReference
2
HALF
10
2533.286651
20
257.748745
41
0.116929
42
0.116929
43
0.116929
50
90.000000
0
TEXT
5
4b8
100
AcDbEntity
8
1
62
11
100
AcDbText
10
2533.256319
20
239.815009
40
0.138583
41
0.825
1
34
50
90.000000
7
STANDARD
72
0
100
AcDbText
0
POINT
5
4b9
100
AcDbEntity
8
DEFPOINTS
6
DOT2
62
11
100
AcDbPoint
10
2520.286651
20
257.748745
0
POINT
5
4ba
100
AcDbEntity
8
DEFPOINTS
6
DOT2
62
11
100
AcDbPoint
10
2520.286651
20
223.748745
0
POINT
5
4bb
100
AcDbEntity
8
DEFPOINTS
6
DOT2
62
11
100
AcDbPoint
10
2533.286651
20
223.748745
0
ENDBLK
5
4bc
100
AcDbEntity
8
1
100
AcDbBlockEnd
0
BLOCK
5
4bd
100
AcDbEntity
8
1
100
AcDbBlockBegin
2
*D92
70
65
10
0.000000
20
0.000000
3
*D
0
LINE
5
4be
100
AcDbEntity
8
1
6
DOT2
62
11
100
AcDbLine
10
2522.790102
20
253.606759
11
2519.127350
21
249.514158
0
LINE
5
4bf
100
AcDbEntity
8
1
6
DOT2
62
11
100
AcDbLine
10
2519.127350
20
249.514158
11
2512.759240
21
249.514158
0
INSERT
5
4c0
100
AcDbEntity
8
1
6
DOT2
62
11
100
AcDbBlockReference
2
HALF
10
2522.790102
20
253.606759
41
0.116929
42
0.116929
43
0.116929
50
48.172438
0
LINE
5
4c1
100
AcDbEntity
8
1
6
DOT2
62
11
100
AcDbLine
10
2520.202647
20
250.812427
11
2520.375875
21
250.812427
0
LINE
5
4c2
100
AcDbEntity
8
1
6
DOT2
62
11
100
AcDbLine
10
2520.289261
20
250.725813
11
2520.289261
21
250.899041
0
TEXT
5
4c3
100
AcDbEntity
8
1
62
11
100
AcDbText
10
2522.127704
20
249.544490
40
0.138583
41
0.825
1
R3.8
7
STANDARD
72
0
100
AcDbText
0
POINT
5
4c4
100
AcDbEntity
8
DEFPOINTS
6
DOT2
62
11
100
AcDbPoint
10
2522.790102
20
253.606759
0
POINT
5
4c5
100
AcDbEntity
8
DEFPOINTS
6
DOT2
62
11
100
AcDbPoint
10
2520.289261
20
250.812427
0
ENDBLK
5
4c6
100
AcDbEntity
8
1
100
AcDbBlockEnd
0
BLOCK
5
4c7
100
AcDbEntity
8
1
100
AcDbBlockBegin
2
*D93
70
65
10
0.000000
20
0.000000
3
*D
0
LINE
5
4c8
100
AcDbEntity
8
1
6
DOT2
62
11
100
AcDbLine
10
2573.209133
20
222.769188
11
2573.209133
21
213.269188
0
LINE
5
4c9
100
AcDbEntity
8
1
6
DOT2
62
11
100
AcDbLine
10
2563.702237
20
238.769188
11
2563.702237
21
213.269188
0
LINE
5
4ca
100
AcDbEntity
8
1
6
DOT2
62
11
100
AcDbLine
10
2573.209133
20
215.269188
11
2563.702237
21
215.269188
0
INSERT
5
4cb
100
AcDbEntity
8
1
6
DOT2
62
11
100
AcDbBlockReference
2
HALF
10
2573.209133
20
215.269188
41
0.116929
42
0.116929
43
0.116929
0
INSERT
5
4cc
100
AcDbEntity
8
1
6
DOT2
62
11
100
AcDbBlockReference
2
HALF
10
2563.702237
20
215.269188
41
0.116929
42
0.116929
43
0.116929
50
180.000000
0
TEXT
5
4cd
100
AcDbEntity
8
1
62
11
100
AcDbText
10
2567.346823
20
215.299520
40
0.138583
41
0.825
1
9.5
7
STANDARD
72
0
100
AcDbText
0
POINT
5
4ce
100
AcDbEntity
8
DEFPOINTS
6
DOT2
62
11
100
AcDbPoint
10
2573.209133
20
224.269188
0
POINT
5
4cf
100
AcDbEntity
8
DEFPOINTS
6
DOT2
62
11
100
AcDbPoint
10
2563.702237
20
240.269188
0
POINT
5
4d0
100
AcDbEntity
8
DEFPOINTS
6
DOT2
62
11
100
AcDbPoint
10
2563.702237
20
215.269188
0
ENDBLK
5
4d1
100
AcDbEntity
8
1
100
AcDbBlockEnd
0
BLOCK
5
4d2
100
AcDbEntity
8
1
100
AcDbBlockBegin
2
*D94
70
65
10
0.000000
20
0.000000
3
*D
0
LINE
5
4d3
100
AcDbEntity
8
1
6
DOT2
62
11
100
AcDbLine
10
2573.209133
20
222.769188
11
2573.209133
21
219.269188
0
LINE
5
4d4
100
AcDbEntity
8
1
6
DOT2
62
11
100
AcDbLine
10
2572.209133
20
219.769188
11
2572.209133
21
219.269188
0
LINE
5
4d5
100
AcDbEntity
8
1
6
DOT2
62
11
100
AcDbLine
10
2572.209133
20
221.269188
11
2569.636053
21
221.269188
0
LINE
5
4d6
100
AcDbEntity
8
1
6
DOT2
62
11
100
AcDbLine
10
2573.209133
20
221.269188
11
2575.782214
21
221.269188
0
LINE
5
4d7
100
AcDbEntity
8
1
6
DOT2
62
11
100
AcDbLine
10
2573.209133
20
221.269188
11
2572.209133
21
221.269188
0
INSERT
5
4d8
100
AcDbEntity
8
1
6
DOT2
62
11
100
AcDbBlockReference
2
HALF
10
2573.209133
20
221.269188
41
0.116929
42
0.116929
43
0.116929
50
180.000000
0
INSERT
5
4d9
100
AcDbEntity
8
1
6
DOT2
62
11
100
AcDbBlockReference
2
HALF
10
2572.209133
20
221.269188
41
0.116929
42
0.116929
43
0.116929
0
TEXT
5
4da
100
AcDbEntity
8
1
62
11
100
AcDbText
10
2578.196263
20
221.299520
40
0.138583
41
0.825
1
1
7
STANDARD
72
0
100
AcDbText
0
POINT
5
4db
100
AcDbEntity
8
DEFPOINTS
6
DOT2
62
11
100
AcDbPoint
10
2573.209133
20
224.269188
0
POINT
5
4dc
100
AcDbEntity
8
DEFPOINTS
6
DOT2
62
11
100
AcDbPoint
10
2572.209133
20
221.269188
0
POINT
5
4dd
100
AcDbEntity
8
DEFPOINTS
6
DOT2
62
11
100
AcDbPoint
10
2572.209133
20
221.269188
0
ENDBLK
5
4de
100
AcDbEntity
8
1
100
AcDbBlockEnd
0
BLOCK
5
4df
100
AcDbEntity
8
1
100
AcDbBlockBegin
2
*D95
70
65
10
0.000000
20
0.000000
3
*D
0
LINE
5
4e0
100
AcDbEntity
8
1
6
DOT2
62
11
100
AcDbLine
10
2573.209133
20
222.769188
11
2573.209133
21
216.269188
0
LINE
5
4e1
100
AcDbEntity
8
1
6
DOT2
62
11
100
AcDbLine
10
2566.209133
20
226.269188
11
2566.209133
21
216.269188
0
LINE
5
4e2
100
AcDbEntity
8
1
6
DOT2
62
11
100
AcDbLine
10
2573.209133
20
218.269188
11
2566.209133
21
218.269188
0
INSERT
5
4e3
100
AcDbEntity
8
1
6
DOT2
62
11
100
AcDbBlockReference
2
HALF
10
2573.209133
20
218.269188
41
0.116929
42
0.116929
43
0.116929
0
INSERT
5
4e4
100
AcDbEntity
8
1
6
DOT2
62
11
100
AcDbBlockReference
2
HALF
10
2566.209133
20
218.269188
41
0.116929
42
0.116929
43
0.116929
50
180.000000
0
TEXT
5
4e5
100
AcDbEntity
8
1
62
11
100
AcDbText
10
2569.186045
20
218.299520
40
0.138583
41
0.825
1
7
7
STANDARD
72
0
100
AcDbText
0
POINT
5
4e6
100
AcDbEntity
8
DEFPOINTS
6
DOT2
62
11
100
AcDbPoint
10
2573.209133
20
224.269188
0
POINT
5
4e7
100
AcDbEntity
8
DEFPOINTS
6
DOT2
62
11
100
AcDbPoint
10
2566.209133
20
227.769188
0
POINT
5
4e8
100
AcDbEntity
8
DEFPOINTS
6
DOT2
62
11
100
AcDbPoint
10
2566.209133
20
218.269188
0
ENDBLK
5
4e9
100
AcDbEntity
8
1
100
AcDbBlockEnd
0
BLOCK
5
4ea
100
AcDbEntity
8
1
100
AcDbBlockBegin
2
*D96
70
65
10
0.000000
20
0.000000
3
*D
0
LINE
5
4eb
100
AcDbEntity
8
1
6
DOT2
62
11
100
AcDbLine
10
2571.536109
20
257.008808
11
2569.975852
21
258.723451
0
LINE
5
4ec
100
AcDbEntity
8
1
6
DOT2
62
11
100
AcDbLine
10
2569.975852
20
258.723451
11
2563.780970
21
258.723451
0
INSERT
5
4ed
100
AcDbEntity
8
1
6
DOT2
62
11
100
AcDbBlockReference
2
HALF
10
2571.536109
20
257.008808
41
0.116929
42
0.116929
43
0.116929
50
312.300939
0
LINE
5
4ee
100
AcDbEntity
8
1
6
DOT2
62
11
100
AcDbLine
10
2572.122519
20
256.269188
11
2572.295747
21
256.269188
0
LINE
5
4ef
100
AcDbEntity
8
1
6
DOT2
62
11
100
AcDbLine
10
2572.209133
20
256.182573
11
2572.209133
21
256.355802
0
TEXT
5
4f0
100
AcDbEntity
8
1
62
11
100
AcDbText
10
2566.912417
20
258.753783
40
0.138583
41
0.825
1
R1
7
STANDARD
72
0
100
AcDbText
0
POINT
5
4f1
100
AcDbEntity
8
DEFPOINTS
6
DOT2
62
11
100
AcDbPoint
10
2571.536109
20
257.008808
0
POINT
5
4f2
100
AcDbEntity
8
DEFPOINTS
6
DOT2
62
11
100
AcDbPoint
10
2572.209133
20
256.269188
0
ENDBLK
5
4f3
100
AcDbEntity
8
1
100
AcDbBlockEnd
0
BLOCK
5
4f4
100
AcDbEntity
8
1
100
AcDbBlockBegin
2
*D97
70
65
10
0.000000
20
0.000000
3
*D
0
LINE
5
4f5
100
AcDbEntity
8
1
6
DOT2
62
11
100
AcDbLine
10
2574.709133
20
253.769188
11
2584.209133
21
253.769188
0
LINE
5
4f6
100
AcDbEntity
8
1
6
DOT2
62
11
100
AcDbLine
10
2574.709133
20
226.769188
11
2584.209133
21
226.769188
0
LINE
5
4f7
100
AcDbEntity
8
1
6
DOT2
62
11
100
AcDbLine
10
2582.209133
20
253.769188
11
2582.209133
21
226.769188
0
INSERT
5
4f8
100
AcDbEntity
8
1
6
DOT2
62
11
100
AcDbBlockReference
2
HALF
10
2582.209133
20
226.769188
41
0.116929
42
0.116929
43
0.116929
50
270.000000
0
INSERT
5
4f9
100
AcDbEntity
8
1
6
DOT2
62
11
100
AcDbBlockReference
2
HALF
10
2582.209133
20
253.769188
41
0.116929
42
0.116929
43
0.116929
50
90.000000
0
TEXT
5
4fa
100
AcDbEntity
8
1
62
11
100
AcDbText
10
2582.178801
20
239.804651
40
0.138583
41
0.825
1
27
50
90.000000
7
STANDARD
72
0
100
AcDbText
0
POINT
5
4fb
100
AcDbEntity
8
DEFPOINTS
6
DOT2
62
11
100
AcDbPoint
10
2573.209133
20
253.769188
0
POINT
5
4fc
100
AcDbEntity
8
DEFPOINTS
6
DOT2
62
11
100
AcDbPoint
10
2573.209133
20
226.769188
0
POINT
5
4fd
100
AcDbEntity
8
DEFPOINTS
6
DOT2
62
11
100
AcDbPoint
10
2582.209133
20
226.769188
0
ENDBLK
5
4fe
100
AcDbEntity
8
1
100
AcDbBlockEnd
0
BLOCK
5
4ff
100
AcDbEntity
8
1
100
AcDbBlockBegin
2
*D98
70
65
10
0.000000
20
0.000000
3
*D
0
LINE
5
500
100
AcDbEntity
8
1
6
DOT2
62
11
100
AcDbLine
10
2574.709133
20
245.760739
11
2581.209133
21
245.760739
0
LINE
5
501
100
AcDbEntity
8
1
6
DOT2
62
11
100
AcDbLine
10
2574.709133
20
234.760739
11
2581.209133
21
234.760739
0
LINE
5
502
100
AcDbEntity
8
1
6
DOT2
62
11
100
AcDbLine
10
2579.209133
20
245.760739
11
2579.209133
21
234.760739
0
INSERT
5
503
100
AcDbEntity
8
1
6
DOT2
62
11
100
AcDbBlockReference
2
HALF
10
2579.209133
20
234.760739
41
0.116929
42
0.116929
43
0.116929
50
270.000000
0
INSERT
5
504
100
AcDbEntity
8
1
6
DOT2
62
11
100
AcDbBlockReference
2
HALF
10
2579.209133
20
245.760739
41
0.116929
42
0.116929
43
0.116929
50
90.000000
0
TEXT
5
505
100
AcDbEntity
8
1
62
11
100
AcDbText
10
2579.178801
20
239.889824
40
0.138583
41
0.825
1
%%c11
50
90.000000
7
STANDARD
72
0
100
AcDbText
0
POINT
5
506
100
AcDbEntity
8
DEFPOINTS
6
DOT2
62
11
100
AcDbPoint
10
2573.209133
20
245.760739
0
POINT
5
507
100
AcDbEntity
8
DEFPOINTS
6
DOT2
62
11
100
AcDbPoint
10
2573.209133
20
234.760739
0
POINT
5
508
100
AcDbEntity
8
DEFPOINTS
6
DOT2
62
11
100
AcDbPoint
10
2579.209133
20
234.760739
0
ENDBLK
5
509
100
AcDbEntity
8
1
100
AcDbBlockEnd
0
BLOCK
5
50a
100
AcDbEntity
8
1
100
AcDbBlockBegin
2
*D99
70
65
10
0.000000
20
0.000000
3
*D
0
LINE
5
50b
100
AcDbEntity
8
1
6
DOT2
62
11
100
AcDbLine
10
2572.878404
20
223.248745
11
2572.878404
21
213.748745
0
LINE
5
50c
100
AcDbEntity
8
1
6
DOT2
62
11
100
AcDbLine
10
2563.371508
20
239.248745
11
2563.371508
21
213.748745
0
LINE
5
50d
100
AcDbEntity
8
1
6
DOT2
62
11
100
AcDbLine
10
2572.878404
20
215.748745
11
2563.371508
21
215.748745
0
INSERT
5
50e
100
AcDbEntity
8
1
6
DOT2
62
11
100
AcDbBlockReference
2
HALF
10
2572.878404
20
215.748745
41
0.116929
42
0.116929
43
0.116929
0
INSERT
5
50f
100
AcDbEntity
8
1
6
DOT2
62
11
100
AcDbBlockReference
2
HALF
10
2563.371508
20
215.748745
41
0.116929
42
0.116929
43
0.116929
50
180.000000
0
TEXT
5
510
100
AcDbEntity
8
1
62
11
100
AcDbText
10
2567.016094
20
215.779077
40
0.138583
41
0.825
1
9.5
7
STANDARD
72
0
100
AcDbText
0
POINT
5
511
100
AcDbEntity
8
DEFPOINTS
6
DOT2
62
11
100
AcDbPoint
10
2572.878404
20
224.748745
0
POINT
5
512
100
AcDbEntity
8
DEFPOINTS
6
DOT2
62
11
100
AcDbPoint
10
2563.371508
20
240.748745
0
POINT
5
513
100
AcDbEntity
8
DEFPOINTS
6
DOT2
62
11
100
AcDbPoint
10
2563.371508
20
215.748745
0
ENDBLK
5
514
100
AcDbEntity
8
1
100
AcDbBlockEnd
0
BLOCK
5
515
100
AcDbEntity
8
1
100
AcDbBlockBegin
2
*D100
70
65
10
0.000000
20
0.000000
3
*D
0
LINE
5
516
100
AcDbEntity
8
1
6
DOT2
62
11
100
AcDbLine
10
2572.878404
20
223.248745
11
2572.878404
21
219.748745
0
LINE
5
517
100
AcDbEntity
8
1
6
DOT2
62
11
100
AcDbLine
10
2571.878404
20
220.248745
11
2571.878404
21
219.748745
0
LINE
5
518
100
AcDbEntity
8
1
6
DOT2
62
11
100
AcDbLine
10
2571.878404
20
221.748745
11
2569.305323
21
221.748745
0
LINE
5
519
100
AcDbEntity
8
1
6
DOT2
62
11
100
AcDbLine
10
2572.878404
20
221.748745
11
2575.451485
21
221.748745
0
LINE
5
51a
100
AcDbEntity
8
1
6
DOT2
62
11
100
AcDbLine
10
2572.878404
20
221.748745
11
2571.878404
21
221.748745
0
INSERT
5
51b
100
AcDbEntity
8
1
6
DOT2
62
11
100
AcDbBlockReference
2
HALF
10
2572.878404
20
221.748745
41
0.116929
42
0.116929
43
0.116929
50
180.000000
0
INSERT
5
51c
100
AcDbEntity
8
1
6
DOT2
62
11
100
AcDbBlockReference
2
HALF
10
2571.878404
20
221.748745
41
0.116929
42
0.116929
43
0.116929
0
TEXT
5
51d
100
AcDbEntity
8
1
62
11
100
AcDbText
10
2577.865534
20
221.779077
40
0.138583
41
0.825
1
1
7
STANDARD
72
0
100
AcDbText
0
POINT
5
51e
100
AcDbEntity
8
DEFPOINTS
6
DOT2
62
11
100
AcDbPoint
10
2572.878404
20
224.748745
0
POINT
5
51f
100
AcDbEntity
8
DEFPOINTS
6
DOT2
62
11
100
AcDbPoint
10
2571.878404
20
221.748745
0
POINT
5
520
100
AcDbEntity
8
DEFPOINTS
6
DOT2
62
11
100
AcDbPoint
10
2571.878404
20
221.748745
0
ENDBLK
5
521
100
AcDbEntity
8
1
100
AcDbBlockEnd
0
BLOCK
5
522
100
AcDbEntity
8
1
100
AcDbBlockBegin
2
*D101
70
65
10
0.000000
20
0.000000
3
*D
0
LINE
5
523
100
AcDbEntity
8
1
6
DOT2
62
11
100
AcDbLine
10
2572.878404
20
223.248745
11
2572.878404
21
216.748745
0
LINE
5
524
100
AcDbEntity
8
1
6
DOT2
62
11
100
AcDbLine
10
2565.878404
20
226.748745
11
2565.878404
21
216.748745
0
LINE
5
525
100
AcDbEntity
8
1
6
DOT2
62
11
100
AcDbLine
10
2572.878404
20
218.748745
11
2565.878404
21
218.748745
0
INSERT
5
526
100
AcDbEntity
8
1
6
DOT2
62
11
100
AcDbBlockReference
2
HALF
10
2572.878404
20
218.748745
41
0.116929
42
0.116929
43
0.116929
0
INSERT
5
527
100
AcDbEntity
8
1
6
DOT2
62
11
100
AcDbBlockReference
2
HALF
10
2565.878404
20
218.748745
41
0.116929
42
0.116929
43
0.116929
50
180.000000
0
TEXT
5
528
100
AcDbEntity
8
1
62
11
100
AcDbText
10
2568.855316
20
218.779077
40
0.138583
41
0.825
1
7
7
STANDARD
72
0
100
AcDbText
0
POINT
5
529
100
AcDbEntity
8
DEFPOINTS
6
DOT2
62
11
100
AcDbPoint
10
2572.878404
20
224.748745
0
POINT
5
52a
100
AcDbEntity
8
DEFPOINTS
6
DOT2
62
11
100
AcDbPoint
10
2565.878404
20
228.248745
0
POINT
5
52b
100
AcDbEntity
8
DEFPOINTS
6
DOT2
62
11
100
AcDbPoint
10
2565.878404
20
218.748745
0
ENDBLK
5
52c
100
AcDbEntity
8
1
100
AcDbBlockEnd
0
BLOCK
5
52d
100
AcDbEntity
8
1
100
AcDbBlockBegin
2
*D102
70
65
10
0.000000
20
0.000000
3
*D
0
LINE
5
52e
100
AcDbEntity
8
1
6
DOT2
62
11
100
AcDbLine
10
2571.205379
20
257.488365
11
2569.645123
21
259.203008
0
LINE
5
52f
100
AcDbEntity
8
1
6
DOT2
62
11
100
AcDbLine
10
2569.645123
20
259.203008
11
2563.450241
21
259.203008
0
INSERT
5
530
100
AcDbEntity
8
1
6
DOT2
62
11
100
AcDbBlockReference
2
HALF
10
2571.205379
20
257.488365
41
0.116929
42
0.116929
43
0.116929
50
312.300939
0
LINE
5
531
100
AcDbEntity
8
1
6
DOT2
62
11
100
AcDbLine
10
2571.791790
20
256.748745
11
2571.965018
21
256.748745
0
LINE
5
532
100
AcDbEntity
8
1
6
DOT2
62
11
100
AcDbLine
10
2571.878404
20
256.662131
11
2571.878404
21
256.835359
0
TEXT
5
533
100
AcDbEntity
8
1
62
11
100
AcDbText
10
2566.581688
20
259.233341
40
0.138583
41
0.825
1
R1
7
STANDARD
72
0
100
AcDbText
0
POINT
5
534
100
AcDbEntity
8
DEFPOINTS
6
DOT2
62
11
100
AcDbPoint
10
2571.205379
20
257.488365
0
POINT
5
535
100
AcDbEntity
8
DEFPOINTS
6
DOT2
62
11
100
AcDbPoint
10
2571.878404
20
256.748745
0
ENDBLK
5
536
100
AcDbEntity
8
1
100
AcDbBlockEnd
0
BLOCK
5
537
100
AcDbEntity
8
1
100
AcDbBlockBegin
2
*D103
70
65
10
0.000000
20
0.000000
3
*D
0
LINE
5
538
100
AcDbEntity
8
1
6
DOT2
62
11
100
AcDbLine
10
2574.378404
20
254.248745
11
2583.878404
21
254.248745
0
LINE
5
539
100
AcDbEntity
8
1
6
DOT2
62
11
100
AcDbLine
10
2574.378404
20
227.248745
11
2583.878404
21
227.248745
0
LINE
5
53a
100
AcDbEntity
8
1
6
DOT2
62
11
100
AcDbLine
10
2581.878404
20
254.248745
11
2581.878404
21
227.248745
0
INSERT
5
53b
100
AcDbEntity
8
1
6
DOT2
62
11
100
AcDbBlockReference
2
HALF
10
2581.878404
20
227.248745
41
0.116929
42
0.116929
43
0.116929
50
270.000000
0
INSERT
5
53c
100
AcDbEntity
8
1
6
DOT2
62
11
100
AcDbBlockReference
2
HALF
10
2581.878404
20
254.248745
41
0.116929
42
0.116929
43
0.116929
50
90.000000
0
TEXT
5
53d
100
AcDbEntity
8
1
62
11
100
AcDbText
10
2581.848072
20
240.284208
40
0.138583
41
0.825
1
27
50
90.000000
7
STANDARD
72
0
100
AcDbText
0
POINT
5
53e
100
AcDbEntity
8
DEFPOINTS
6
DOT2
62
11
100
AcDbPoint
10
2572.878404
20
254.248745
0
POINT
5
53f
100
AcDbEntity
8
DEFPOINTS
6
DOT2
62
11
100
AcDbPoint
10
2572.878404
20
227.248745
0
POINT
5
540
100
AcDbEntity
8
DEFPOINTS
6
DOT2
62
11
100
AcDbPoint
10
2581.878404
20
227.248745
0
ENDBLK
5
541
100
AcDbEntity
8
1
100
AcDbBlockEnd
0
BLOCK
5
542
100
AcDbEntity
8
1
100
AcDbBlockBegin
2
*D104
70
65
10
0.000000
20
0.000000
3
*D
0
LINE
5
543
100
AcDbEntity
8
1
6
DOT2
62
11
100
AcDbLine
10
2574.378404
20
246.240296
11
2580.878404
21
246.240296
0
LINE
5
544
100
AcDbEntity
8
1
6
DOT2
62
11
100
AcDbLine
10
2574.378404
20
235.240296
11
2580.878404
21
235.240296
0
LINE
5
545
100
AcDbEntity
8
1
6
DOT2
62
11
100
AcDbLine
10
2578.878404
20
246.240296
11
2578.878404
21
235.240296
0
INSERT
5
546
100
AcDbEntity
8
1
6
DOT2
62
11
100
AcDbBlockReference
2
HALF
10
2578.878404
20
235.240296
41
0.116929
42
0.116929
43
0.116929
50
270.000000
0
INSERT
5
547
100
AcDbEntity
8
1
6
DOT2
62
11
100
AcDbBlockReference
2
HALF
10
2578.878404
20
246.240296
41
0.116929
42
0.116929
43
0.116929
50
90.000000
0
TEXT
5
548
100
AcDbEntity
8
1
62
11
100
AcDbText
10
2578.848072
20
240.369382
40
0.138583
41
0.825
1
%%c11
50
90.000000
7
STANDARD
72
0
100
AcDbText
0
POINT
5
549
100
AcDbEntity
8
DEFPOINTS
6
DOT2
62
11
100
AcDbPoint
10
2572.878404
20
246.240296
0
POINT
5
54a
100
AcDbEntity
8
DEFPOINTS
6
DOT2
62
11
100
AcDbPoint
10
2572.878404
20
235.240296
0
POINT
5
54b
100
AcDbEntity
8
DEFPOINTS
6
DOT2
62
11
100
AcDbPoint
10
2578.878404
20
235.240296
0
ENDBLK
5
54c
100
AcDbEntity
8
1
100
AcDbBlockEnd
0
BLOCK
5
54d
100
AcDbEntity
8
1
100
AcDbBlockBegin
2
*D105
70
65
10
0.000000
20
0.000000
3
*D
0
LINE
5
54e
100
AcDbEntity
8
1
6
DOT2
62
11
100
AcDbLine
10
2549.108381
20
393.585798
11
2549.108381
21
380.156688
0
LINE
5
54f
100
AcDbEntity
8
1
6
DOT2
62
11
100
AcDbLine
10
2574.103349
20
392.656688
11
2574.103349
21
380.156688
0
LINE
5
550
100
AcDbEntity
8
1
6
DOT2
62
11
100
AcDbLine
10
2549.108381
20
382.156688
11
2574.103349
21
382.156688
0
INSERT
5
551
100
AcDbEntity
8
1
6
DOT2
62
11
100
AcDbBlockReference
2
HALF
10
2549.108381
20
382.156688
41
0.116929
42
0.116929
43
0.116929
50
180.000000
0
INSERT
5
552
100
AcDbEntity
8
1
6
DOT2
62
11
100
AcDbBlockReference
2
HALF
10
2574.103349
20
382.156688
41
0.116929
42
0.116929
43
0.116929
0
TEXT
5
553
100
AcDbEntity
8
1
62
11
100
AcDbText
10
2561.806057
20
382.187020
40
0.138583
41
0.825
1
25
7
STANDARD
72
0
100
AcDbText
0
POINT
5
554
100
AcDbEntity
8
DEFPOINTS
6
DOT2
62
11
100
AcDbPoint
10
2549.108381
20
395.085798
0
POINT
5
555
100
AcDbEntity
8
DEFPOINTS
6
DOT2
62
11
100
AcDbPoint
10
2574.103349
20
394.156688
0
POINT
5
556
100
AcDbEntity
8
DEFPOINTS
6
DOT2
62
11
100
AcDbPoint
10
2574.103349
20
382.156688
0
ENDBLK
5
557
100
AcDbEntity
8
1
100
AcDbBlockEnd
0
BLOCK
5
558
100
AcDbEntity
8
1
100
AcDbBlockBegin
2
*D106
70
65
10
0.000000
20
0.000000
3
*D
0
LINE
5
559
100
AcDbEntity
8
1
6
DOT2
62
11
100
AcDbLine
10
2551.108381
20
397.156688
11
2551.108381
21
383.156688
0
LINE
5
55a
100
AcDbEntity
8
1
6
DOT2
62
11
100
AcDbLine
10
2572.103349
20
397.156688
11
2572.103349
21
383.156688
0
LINE
5
55b
100
AcDbEntity
8
1
6
DOT2
62
11
100
AcDbLine
10
2551.108381
20
385.156688
11
2572.103349
21
385.156688
0
INSERT
5
55c
100
AcDbEntity
8
1
6
DOT2
62
11
100
AcDbBlockReference
2
HALF
10
2551.108381
20
385.156688
41
0.116929
42
0.116929
43
0.116929
50
180.000000
0
INSERT
5
55d
100
AcDbEntity
8
1
6
DOT2
62
11
100
AcDbBlockReference
2
HALF
10
2572.103349
20
385.156688
41
0.116929
42
0.116929
43
0.116929
0
TEXT
5
55e
100
AcDbEntity
8
1
62
11
100
AcDbText
10
2561.465879
20
385.187020
40
0.138583
41
0.825
1
21
7
STANDARD
72
0
100
AcDbText
0
POINT
5
55f
100
AcDbEntity
8
DEFPOINTS
6
DOT2
62
11
100
AcDbPoint
10
2551.108381
20
398.656688
0
POINT
5
560
100
AcDbEntity
8
DEFPOINTS
6
DOT2
62
11
100
AcDbPoint
10
2572.103349
20
398.656688
0
POINT
5
561
100
AcDbEntity
8
DEFPOINTS
6
DOT2
62
11
100
AcDbPoint
10
2572.103349
20
385.156688
0
ENDBLK
5
562
100
AcDbEntity
8
1
100
AcDbBlockEnd
0
BLOCK
5
563
100
AcDbEntity
8
1
100
AcDbBlockBegin
2
*D107
70
65
10
0.000000
20
0.000000
3
*D
0
LINE
5
564
100
AcDbEntity
8
1
6
DOT2
62
11
100
AcDbLine
10
2550.379244
20
418.178751
11
2556.108381
21
414.156688
0
INSERT
5
565
100
AcDbEntity
8
1
6
DOT2
62
11
100
AcDbBlockReference
2
HALF
10
2550.379244
20
418.178751
41
0.116929
42
0.116929
43
0.116929
50
144.929746
0
LINE
5
566
100
AcDbEntity
8
1
6
DOT2
62
11
100
AcDbLine
10
2556.108381
20
414.156688
11
2550.379244
21
418.178751
0
TEXT
5
567
100
AcDbEntity
8
1
62
11
100
AcDbText
10
2546.682016
20
420.811400
40
0.138583
41
0.825
1
R7
50
-35.070254
7
STANDARD
72
0
100
AcDbText
0
POINT
5
568
100
AcDbEntity
8
DEFPOINTS
6
DOT2
62
11
100
AcDbPoint
10
2550.379244
20
418.178751
0
POINT
5
569
100
AcDbEntity
8
DEFPOINTS
6
DOT2
62
11
100
AcDbPoint
10
2556.108381
20
414.156688
0
ENDBLK
5
56a
100
AcDbEntity
8
1
100
AcDbBlockEnd
0
BLOCK
5
56b
100
AcDbEntity
8
1
100
AcDbBlockBegin
2
*D108
70
65
10
0.000000
20
0.000000
3
*D
0
LINE
5
56c
100
AcDbEntity
8
1
6
DOT2
62
11
100
AcDbLine
10
2553.794198
20
418.588906
11
2556.108381
21
414.156688
0
INSERT
5
56d
100
AcDbEntity
8
1
6
DOT2
62
11
100
AcDbBlockReference
2
HALF
10
2553.794198
20
418.588906
41
0.116929
42
0.116929
43
0.116929
50
117.570303
0
LINE
5
56e
100
AcDbEntity
8
1
6
DOT2
62
11
100
AcDbLine
10
2556.108381
20
414.156688
11
2553.794198
21
418.588906
0
TEXT
5
56f
100
AcDbEntity
8
1
62
11
100
AcDbText
10
2551.702584
20
422.660384
40
0.138583
41
0.825
1
R5
50
-62.429697
7
STANDARD
72
0
100
AcDbText
0
POINT
5
570
100
AcDbEntity
8
DEFPOINTS
6
DOT2
62
11
100
AcDbPoint
10
2553.794198
20
418.588906
0
POINT
5
571
100
AcDbEntity
8
DEFPOINTS
6
DOT2
62
11
100
AcDbPoint
10
2556.108381
20
414.156688
0
ENDBLK
5
572
100
AcDbEntity
8
1
100
AcDbBlockEnd
0
BLOCK
5
573
100
AcDbEntity
8
1
100
AcDbBlockBegin
2
*D109
70
65
10
0.000000
20
0.000000
3
*D
0
LINE
5
574
100
AcDbEntity
8
1
6
DOT2
62
11
100
AcDbLine
10
2567.603349
20
419.156688
11
2579.103349
21
419.156688
0
LINE
5
575
100
AcDbEntity
8
1
6
DOT2
62
11
100
AcDbLine
10
2567.603349
20
389.406688
11
2579.103349
21
389.406688
0
LINE
5
576
100
AcDbEntity
8
1
6
DOT2
62
11
100
AcDbLine
10
2577.103349
20
419.156688
11
2577.103349
21
389.406688
0
INSERT
5
577
100
AcDbEntity
8
1
6
DOT2
62
11
100
AcDbBlockReference
2
HALF
10
2577.103349
20
389.406688
41
0.116929
42
0.116929
43
0.116929
50
270.000000
0
INSERT
5
578
100
AcDbEntity
8
1
6
DOT2
62
11
100
AcDbBlockReference
2
HALF
10
2577.103349
20
419.156688
41
0.116929
42
0.116929
43
0.116929
50
90.000000
0
TEXT
5
579
100
AcDbEntity
8
1
62
11
100
AcDbText
10
2577.073017
20
403.922465
40
0.138583
41
0.825
1
29.8
50
90.000000
7
STANDARD
72
0
100
AcDbText
0
POINT
5
57a
100
AcDbEntity
8
DEFPOINTS
6
DOT2
62
11
100
AcDbPoint
10
2566.103349
20
419.156688
0
POINT
5
57b
100
AcDbEntity
8
DEFPOINTS
6
DOT2
62
11
100
AcDbPoint
10
2566.103349
20
389.406688
0
POINT
5
57c
100
AcDbEntity
8
DEFPOINTS
6
DOT2
62
11
100
AcDbPoint
10
2577.103349
20
389.406688
0
ENDBLK
5
57d
100
AcDbEntity
8
1
100
AcDbBlockEnd
0
BLOCK
5
57e
100
AcDbEntity
8
1
100
AcDbBlockBegin
2
*D110
70
65
10
0.000000
20
0.000000
3
*D
0
LINE
5
57f
100
AcDbEntity
8
1
6
DOT2
62
11
100
AcDbLine
10
2568.603349
20
421.156688
11
2582.103349
21
421.156688
0
LINE
5
580
100
AcDbEntity
8
1
6
DOT2
62
11
100
AcDbLine
10
2568.603349
20
387.156688
11
2582.103349
21
387.156688
0
LINE
5
581
100
AcDbEntity
8
1
6
DOT2
62
11
100
AcDbLine
10
2580.103349
20
421.156688
11
2580.103349
21
387.156688
0
INSERT
5
582
100
AcDbEntity
8
1
6
DOT2
62
11
100
AcDbBlockReference
2
HALF
10
2580.103349
20
387.156688
41
0.116929
42
0.116929
43
0.116929
50
270.000000
0
INSERT
5
583
100
AcDbEntity
8
1
6
DOT2
62
11
100
AcDbBlockReference
2
HALF
10
2580.103349
20
421.156688
41
0.116929
42
0.116929
43
0.116929
50
90.000000
0
TEXT
5
584
100
AcDbEntity
8
1
62
11
100
AcDbText
10
2580.073017
20
403.222951
40
0.138583
41
0.825
1
34
50
90.000000
7
STANDARD
72
0
100
AcDbText
0
POINT
5
585
100
AcDbEntity
8
DEFPOINTS
6
DOT2
62
11
100
AcDbPoint
10
2567.103349
20
421.156688
0
POINT
5
586
100
AcDbEntity
8
DEFPOINTS
6
DOT2
62
11
100
AcDbPoint
10
2567.103349
20
387.156688
0
POINT
5
587
100
AcDbEntity
8
DEFPOINTS
6
DOT2
62
11
100
AcDbPoint
10
2580.103349
20
387.156688
0
ENDBLK
5
588
100
AcDbEntity
8
1
100
AcDbBlockEnd
0
BLOCK
5
589
100
AcDbEntity
8
1
100
AcDbBlockBegin
2
*D111
70
65
10
0.000000
20
0.000000
3
*D
0
LINE
5
58a
100
AcDbEntity
8
1
6
DOT2
62
11
100
AcDbLine
10
2569.606800
20
417.014702
11
2565.944048
21
412.922101
0
LINE
5
58b
100
AcDbEntity
8
1
6
DOT2
62
11
100
AcDbLine
10
2565.944048
20
412.922101
11
2559.575938
21
412.922101
0
INSERT
5
58c
100
AcDbEntity
8
1
6
DOT2
62
11
100
AcDbBlockReference
2
HALF
10
2569.606800
20
417.014702
41
0.116929
42
0.116929
43
0.116929
50
48.172438
0
LINE
5
58d
100
AcDbEntity
8
1
6
DOT2
62
11
100
AcDbLine
10
2567.019345
20
414.220370
11
2567.192573
21
414.220370
0
LINE
5
58e
100
AcDbEntity
8
1
6
DOT2
62
11
100
AcDbLine
10
2567.105959
20
414.133755
11
2567.105959
21
414.306984
0
TEXT
5
58f
100
AcDbEntity
8
1
62
11
100
AcDbText
10
2568.944402
20
412.952433
40
0.138583
41
0.825
1
R3.8
7
STANDARD
72
0
100
AcDbText
0
POINT
5
590
100
AcDbEntity
8
DEFPOINTS
6
DOT2
62
11
100
AcDbPoint
10
2569.606800
20
417.014702
0
POINT
5
591
100
AcDbEntity
8
DEFPOINTS
6
DOT2
62
11
100
AcDbPoint
10
2567.105959
20
414.220370
0
ENDBLK
5
592
100
AcDbEntity
8
1
100
AcDbBlockEnd
0
BLOCK
5
593
100
AcDbEntity
8
1
100
AcDbBlockBegin
2
*D112
70
65
10
0.000000
20
0.000000
3
*D
0
LINE
5
594
100
AcDbEntity
8
1
6
DOT2
62
11
100
AcDbLine
10
2619.695102
20
386.656688
11
2619.695102
21
377.156688
0
LINE
5
595
100
AcDbEntity
8
1
6
DOT2
62
11
100
AcDbLine
10
2610.188206
20
402.656688
11
2610.188206
21
377.156688
0
LINE
5
596
100
AcDbEntity
8
1
6
DOT2
62
11
100
AcDbLine
10
2619.695102
20
379.156688
11
2610.188206
21
379.156688
0
INSERT
5
597
100
AcDbEntity
8
1
6
DOT2
62
11
100
AcDbBlockReference
2
HALF
10
2619.695102
20
379.156688
41
0.116929
42
0.116929
43
0.116929
0
INSERT
5
598
100
AcDbEntity
8
1
6
DOT2
62
11
100
AcDbBlockReference
2
HALF
10
2610.188206
20
379.156688
41
0.116929
42
0.116929
43
0.116929
50
180.000000
0
TEXT
5
599
100
AcDbEntity
8
1
62
11
100
AcDbText
10
2613.832792
20
379.187020
40
0.138583
41
0.825
1
9.5
7
STANDARD
72
0
100
AcDbText
0
POINT
5
59a
100
AcDbEntity
8
DEFPOINTS
6
DOT2
62
11
100
AcDbPoint
10
2619.695102
20
388.156688
0
POINT
5
59b
100
AcDbEntity
8
DEFPOINTS
6
DOT2
62
11
100
AcDbPoint
10
2610.188206
20
404.156688
0
POINT
5
59c
100
AcDbEntity
8
DEFPOINTS
6
DOT2
62
11
100
AcDbPoint
10
2610.188206
20
379.156688
0
ENDBLK
5
59d
100
AcDbEntity
8
1
100
AcDbBlockEnd
0
BLOCK
5
59e
100
AcDbEntity
8
1
100
AcDbBlockBegin
2
*D113
70
65
10
0.000000
20
0.000000
3
*D
0
LINE
5
59f
100
AcDbEntity
8
1
6
DOT2
62
11
100
AcDbLine
10
2619.695102
20
386.656688
11
2619.695102
21
380.156688
0
LINE
5
5a0
100
AcDbEntity
8
1
6
DOT2
62
11
100
AcDbLine
10
2612.695102
20
390.156688
11
2612.695102
21
380.156688
0
LINE
5
5a1
100
AcDbEntity
8
1
6
DOT2
62
11
100
AcDbLine
10
2619.695102
20
382.156688
11
2612.695102
21
382.156688
0
INSERT
5
5a2
100
AcDbEntity
8
1
6
DOT2
62
11
100
AcDbBlockReference
2
HALF
10
2619.695102
20
382.156688
41
0.116929
42
0.116929
43
0.116929
0
INSERT
5
5a3
100
AcDbEntity
8
1
6
DOT2
62
11
100
AcDbBlockReference
2
HALF
10
2612.695102
20
382.156688
41
0.116929
42
0.116929
43
0.116929
50
180.000000
0
TEXT
5
5a4
100
AcDbEntity
8
1
62
11
100
AcDbText
10
2615.672014
20
382.187020
40
0.138583
41
0.825
1
7
7
STANDARD
72
0
100
AcDbText
0
POINT
5
5a5
100
AcDbEntity
8
DEFPOINTS
6
DOT2
62
11
100
AcDbPoint
10
2619.695102
20
388.156688
0
POINT
5
5a6
100
AcDbEntity
8
DEFPOINTS
6
DOT2
62
11
100
AcDbPoint
10
2612.695102
20
391.656688
0
POINT
5
5a7
100
AcDbEntity
8
DEFPOINTS
6
DOT2
62
11
100
AcDbPoint
10
2612.695102
20
382.156688
0
ENDBLK
5
5a8
100
AcDbEntity
8
1
100
AcDbBlockEnd
0
BLOCK
5
5a9
100
AcDbEntity
8
1
100
AcDbBlockBegin
2
*D114
70
65
10
0.000000
20
0.000000
3
*D
0
LINE
5
5aa
100
AcDbEntity
8
1
6
DOT2
62
11
100
AcDbLine
10
2619.695102
20
386.656688
11
2619.695102
21
383.156688
0
LINE
5
5ab
100
AcDbEntity
8
1
6
DOT2
62
11
100
AcDbLine
10
2618.695102
20
383.656688
11
2618.695102
21
383.156688
0
LINE
5
5ac
100
AcDbEntity
8
1
6
DOT2
62
11
100
AcDbLine
10
2618.695102
20
385.156688
11
2616.122021
21
385.156688
0
LINE
5
5ad
100
AcDbEntity
8
1
6
DOT2
62
11
100
AcDbLine
10
2619.695102
20
385.156688
11
2622.268183
21
385.156688
0
LINE
5
5ae
100
AcDbEntity
8
1
6
DOT2
62
11
100
AcDbLine
10
2619.695102
20
385.156688
11
2618.695102
21
385.156688
0
INSERT
5
5af
100
AcDbEntity
8
1
6
DOT2
62
11
100
AcDbBlockReference
2
HALF
10
2619.695102
20
385.156688
41
0.116929
42
0.116929
43
0.116929
50
180.000000
0
INSERT
5
5b0
100
AcDbEntity
8
1
6
DOT2
62
11
100
AcDbBlockReference
2
HALF
10
2618.695102
20
385.156688
41
0.116929
42
0.116929
43
0.116929
0
TEXT
5
5b1
100
AcDbEntity
8
1
62
11
100
AcDbText
10
2624.682232
20
385.187020
40
0.138583
41
0.825
1
1
7
STANDARD
72
0
100
AcDbText
0
POINT
5
5b2
100
AcDbEntity
8
DEFPOINTS
6
DOT2
62
11
100
AcDbPoint
10
2619.695102
20
388.156688
0
POINT
5
5b3
100
AcDbEntity
8
DEFPOINTS
6
DOT2
62
11
100
AcDbPoint
10
2618.695102
20
385.156688
0
POINT
5
5b4
100
AcDbEntity
8
DEFPOINTS
6
DOT2
62
11
100
AcDbPoint
10
2618.695102
20
385.156688
0
ENDBLK
5
5b5
100
AcDbEntity
8
1
100
AcDbBlockEnd
0
BLOCK
5
5b6
100
AcDbEntity
8
1
100
AcDbBlockBegin
2
*D115
70
65
10
0.000000
20
0.000000
3
*D
0
LINE
5
5b7
100
AcDbEntity
8
1
6
DOT2
62
11
100
AcDbLine
10
2618.022077
20
420.896308
11
2616.461821
21
422.610951
0
LINE
5
5b8
100
AcDbEntity
8
1
6
DOT2
62
11
100
AcDbLine
10
2616.461821
20
422.610951
11
2610.266939
21
422.610951
0
INSERT
5
5b9
100
AcDbEntity
8
1
6
DOT2
62
11
100
AcDbBlockReference
2
HALF
10
2618.022077
20
420.896308
41
0.116929
42
0.116929
43
0.116929
50
312.300939
0
LINE
5
5ba
100
AcDbEntity
8
1
6
DOT2
62
11
100
AcDbLine
10
2618.608488
20
420.156688
11
2618.781716
21
420.156688
0
LINE
5
5bb
100
AcDbEntity
8
1
6
DOT2
62
11
100
AcDbLine
10
2618.695102
20
420.070073
11
2618.695102
21
420.243302
0
TEXT
5
5bc
100
AcDbEntity
8
1
62
11
100
AcDbText
10
2613.398386
20
422.641283
40
0.138583
41
0.825
1
R1
7
STANDARD
72
0
100
AcDbText
0
POINT
5
5bd
100
AcDbEntity
8
DEFPOINTS
6
DOT2
62
11
100
AcDbPoint
10
2618.022077
20
420.896308
0
POINT
5
5be
100
AcDbEntity
8
DEFPOINTS
6
DOT2
62
11
100
AcDbPoint
10
2618.695102
20
420.156688
0
ENDBLK
5
5bf
100
AcDbEntity
8
1
100
AcDbBlockEnd
0
BLOCK
5
5c0
100
AcDbEntity
8
1
100
AcDbBlockBegin
2
*D116
70
65
10
0.000000
20
0.000000
3
*D
0
LINE
5
5c1
100
AcDbEntity
8
1
6
DOT2
62
11
100
AcDbLine
10
2621.195102
20
417.656688
11
2630.695102
21
417.656688
0
LINE
5
5c2
100
AcDbEntity
8
1
6
DOT2
62
11
100
AcDbLine
10
2621.195102
20
390.656688
11
2630.695102
21
390.656688
0
LINE
5
5c3
100
AcDbEntity
8
1
6
DOT2
62
11
100
AcDbLine
10
2628.695102
20
417.656688
11
2628.695102
21
390.656688
0
INSERT
5
5c4
100
AcDbEntity
8
1
6
DOT2
62
11
100
AcDbBlockReference
2
HALF
10
2628.695102
20
390.656688
41
0.116929
42
0.116929
43
0.116929
50
270.000000
0
INSERT
5
5c5
100
AcDbEntity
8
1
6
DOT2
62
11
100
AcDbBlockReference
2
HALF
10
2628.695102
20
417.656688
41
0.116929
42
0.116929
43
0.116929
50
90.000000
0
TEXT
5
5c6
100
AcDbEntity
8
1
62
11
100
AcDbText
10
2628.664770
20
403.692151
40
0.138583
41
0.825
1
27
50
90.000000
7
STANDARD
72
0
100
AcDbText
0
POINT
5
5c7
100
AcDbEntity
8
DEFPOINTS
6
DOT2
62
11
100
AcDbPoint
10
2619.695102
20
417.656688
0
POINT
5
5c8
100
AcDbEntity
8
DEFPOINTS
6
DOT2
62
11
100
AcDbPoint
10
2619.695102
20
390.656688
0
POINT
5
5c9
100
AcDbEntity
8
DEFPOINTS
6
DOT2
62
11
100
AcDbPoint
10
2628.695102
20
390.656688
0
ENDBLK
5
5ca
100
AcDbEntity
8
1
100
AcDbBlockEnd
0
BLOCK
5
5cb
100
AcDbEntity
8
1
100
AcDbBlockBegin
2
*D117
70
65
10
0.000000
20
0.000000
3
*D
0
LINE
5
5cc
100
AcDbEntity
8
1
6
DOT2
62
11
100
AcDbLine
10
2621.195102
20
409.648239
11
2627.695102
21
409.648239
0
LINE
5
5cd
100
AcDbEntity
8
1
6
DOT2
62
11
100
AcDbLine
10
2621.195102
20
398.648239
11
2627.695102
21
398.648239
0
LINE
5
5ce
100
AcDbEntity
8
1
6
DOT2
62
11
100
AcDbLine
10
2625.695102
20
409.648239
11
2625.695102
21
398.648239
0
INSERT
5
5cf
100
AcDbEntity
8
1
6
DOT2
62
11
100
AcDbBlockReference
2
HALF
10
2625.695102
20
398.648239
41
0.116929
42
0.116929
43
0.116929
50
270.000000
0
INSERT
5
5d0
100
AcDbEntity
8
1
6
DOT2
62
11
100
AcDbBlockReference
2
HALF
10
2625.695102
20
409.648239
41
0.116929
42
0.116929
43
0.116929
50
90.000000
0
TEXT
5
5d1
100
AcDbEntity
8
1
62
11
100
AcDbText
10
2625.664770
20
403.777324
40
0.138583
41
0.825
1
%%c11
50
90.000000
7
STANDARD
72
0
100
AcDbText
0
POINT
5
5d2
100
AcDbEntity
8
DEFPOINTS
6
DOT2
62
11
100
AcDbPoint
10
2619.695102
20
409.648239
0
POINT
5
5d3
100
AcDbEntity
8
DEFPOINTS
6
DOT2
62
11
100
AcDbPoint
10
2619.695102
20
398.648239
0
POINT
5
5d4
100
AcDbEntity
8
DEFPOINTS
6
DOT2
62
11
100
AcDbPoint
10
2625.695102
20
398.648239
0
ENDBLK
5
5d5
100
AcDbEntity
8
1
100
AcDbBlockEnd
0
BLOCK
5
5d6
100
AcDbEntity
8
1
100
AcDbBlockBegin
2
*D118
70
65
10
0.000000
20
0.000000
3
*D
0
LINE
5
5d7
100
AcDbEntity
8
1
6
DOT2
62
11
100
AcDbLine
10
2903.817438
20
274.459291
11
2903.817438
21
260.459291
0
LINE
5
5d8
100
AcDbEntity
8
1
6
DOT2
62
11
100
AcDbLine
10
2924.812406
20
274.459291
11
2924.812406
21
260.459291
0
LINE
5
5d9
100
AcDbEntity
8
1
6
DOT2
62
11
100
AcDbLine
10
2903.817438
20
262.459291
11
2924.812406
21
262.459291
0
INSERT
5
5da
100
AcDbEntity
8
1
6
DOT2
62
11
100
AcDbBlockReference
2
HALF
10
2903.817438
20
262.459291
41
0.116929
42
0.116929
43
0.116929
50
180.000000
0
INSERT
5
5db
100
AcDbEntity
8
1
6
DOT2
62
11
100
AcDbBlockReference
2
HALF
10
2924.812406
20
262.459291
41
0.116929
42
0.116929
43
0.116929
0
TEXT
5
5dc
100
AcDbEntity
8
1
62
11
100
AcDbText
10
2914.174936
20
262.489623
40
0.138583
41
0.825
1
21
7
STANDARD
72
0
100
AcDbText
0
POINT
5
5dd
100
AcDbEntity
8
DEFPOINTS
6
DOT2
62
11
100
AcDbPoint
10
2903.817438
20
275.959291
0
POINT
5
5de
100
AcDbEntity
8
DEFPOINTS
6
DOT2
62
11
100
AcDbPoint
10
2924.812406
20
275.959291
0
POINT
5
5df
100
AcDbEntity
8
DEFPOINTS
6
DOT2
62
11
100
AcDbPoint
10
2924.812406
20
262.459291
0
ENDBLK
5
5e0
100
AcDbEntity
8
1
100
AcDbBlockEnd
0
BLOCK
5
5e1
100
AcDbEntity
8
1
100
AcDbBlockBegin
2
*D119
70
65
10
0.000000
20
0.000000
3
*D
0
LINE
5
5e2
100
AcDbEntity
8
1
6
DOT2
62
11
100
AcDbLine
10
2901.817438
20
270.888401
11
2901.817438
21
257.459291
0
LINE
5
5e3
100
AcDbEntity
8
1
6
DOT2
62
11
100
AcDbLine
10
2926.812406
20
269.959291
11
2926.812406
21
257.459291
0
LINE
5
5e4
100
AcDbEntity
8
1
6
DOT2
62
11
100
AcDbLine
10
2901.817438
20
259.459291
11
2926.812406
21
259.459291
0
INSERT
5
5e5
100
AcDbEntity
8
1
6
DOT2
62
11
100
AcDbBlockReference
2
HALF
10
2901.817438
20
259.459291
41
0.116929
42
0.116929
43
0.116929
50
180.000000
0
INSERT
5
5e6
100
AcDbEntity
8
1
6
DOT2
62
11
100
AcDbBlockReference
2
HALF
10
2926.812406
20
259.459291
41
0.116929
42
0.116929
43
0.116929
0
TEXT
5
5e7
100
AcDbEntity
8
1
62
11
100
AcDbText
10
2914.515114
20
259.489623
40
0.138583
41
0.825
1
25
7
STANDARD
72
0
100
AcDbText
0
POINT
5
5e8
100
AcDbEntity
8
DEFPOINTS
6
DOT2
62
11
100
AcDbPoint
10
2901.817438
20
272.388401
0
POINT
5
5e9
100
AcDbEntity
8
DEFPOINTS
6
DOT2
62
11
100
AcDbPoint
10
2926.812406
20
271.459291
0
POINT
5
5ea
100
AcDbEntity
8
DEFPOINTS
6
DOT2
62
11
100
AcDbPoint
10
2926.812406
20
259.459291
0
ENDBLK
5
5eb
100
AcDbEntity
8
1
100
AcDbBlockEnd
0
BLOCK
5
5ec
100
AcDbEntity
8
1
100
AcDbBlockBegin
2
*D120
70
65
10
0.000000
20
0.000000
3
*D
0
LINE
5
5ed
100
AcDbEntity
8
1
6
DOT2
62
11
100
AcDbLine
10
2903.088301
20
295.481354
11
2908.817438
21
291.459291
0
INSERT
5
5ee
100
AcDbEntity
8
1
6
DOT2
62
11
100
AcDbBlockReference
2
HALF
10
2903.088301
20
295.481354
41
0.116929
42
0.116929
43
0.116929
50
144.929746
0
LINE
5
5ef
100
AcDbEntity
8
1
6
DOT2
62
11
100
AcDbLine
10
2908.817438
20
291.459291
11
2903.088301
21
295.481354
0
TEXT
5
5f0
100
AcDbEntity
8
1
62
11
100
AcDbText
10
2899.391073
20
298.114003
40
0.138583
41
0.825
1
R7
50
-35.070254
7
STANDARD
72
0
100
AcDbText
0
POINT
5
5f1
100
AcDbEntity
8
DEFPOINTS
6
DOT2
62
11
100
AcDbPoint
10
2903.088301
20
295.481354
0
POINT
5
5f2
100
AcDbEntity
8
DEFPOINTS
6
DOT2
62
11
100
AcDbPoint
10
2908.817438
20
291.459291
0
ENDBLK
5
5f3
100
AcDbEntity
8
1
100
AcDbBlockEnd
0
BLOCK
5
5f4
100
AcDbEntity
8
1
100
AcDbBlockBegin
2
*D121
70
65
10
0.000000
20
0.000000
3
*D
0
LINE
5
5f5
100
AcDbEntity
8
1
6
DOT2
62
11
100
AcDbLine
10
2906.503255
20
295.891509
11
2908.817438
21
291.459291
0
INSERT
5
5f6
100
AcDbEntity
8
1
6
DOT2
62
11
100
AcDbBlockReference
2
HALF
10
2906.503255
20
295.891509
41
0.116929
42
0.116929
43
0.116929
50
117.570303
0
LINE
5
5f7
100
AcDbEntity
8
1
6
DOT2
62
11
100
AcDbLine
10
2908.817438
20
291.459291
11
2906.503255
21
295.891509
0
TEXT
5
5f8
100
AcDbEntity
8
1
62
11
100
AcDbText
10
2904.411641
20
299.962987
40
0.138583
41
0.825
1
R5
50
-62.429697
7
STANDARD
72
0
100
AcDbText
0
POINT
5
5f9
100
AcDbEntity
8
DEFPOINTS
6
DOT2
62
11
100
AcDbPoint
10
2906.503255
20
295.891509
0
POINT
5
5fa
100
AcDbEntity
8
DEFPOINTS
6
DOT2
62
11
100
AcDbPoint
10
2908.817438
20
291.459291
0
ENDBLK
5
5fb
100
AcDbEntity
8
1
100
AcDbBlockEnd
0
BLOCK
5
5fc
100
AcDbEntity
8
1
100
AcDbBlockBegin
2
*D122
70
65
10
0.000000
20
0.000000
3
*D
0
LINE
5
5fd
100
AcDbEntity
8
1
6
DOT2
62
11
100
AcDbLine
10
2920.312406
20
296.459291
11
2931.812406
21
296.459291
0
LINE
5
5fe
100
AcDbEntity
8
1
6
DOT2
62
11
100
AcDbLine
10
2920.312406
20
266.709291
11
2931.812406
21
266.709291
0
LINE
5
5ff
100
AcDbEntity
8
1
6
DOT2
62
11
100
AcDbLine
10
2929.812406
20
296.459291
11
2929.812406
21
266.709291
0
INSERT
5
600
100
AcDbEntity
8
1
6
DOT2
62
11
100
AcDbBlockReference
2
HALF
10
2929.812406
20
266.709291
41
0.116929
42
0.116929
43
0.116929
50
270.000000
0
INSERT
5
601
100
AcDbEntity
8
1
6
DOT2
62
11
100
AcDbBlockReference
2
HALF
10
2929.812406
20
296.459291
41
0.116929
42
0.116929
43
0.116929
50
90.000000
0
TEXT
5
602
100
AcDbEntity
8
1
62
11
100
AcDbText
10
2929.782074
20
281.225068
40
0.138583
41
0.825
1
29.8
50
90.000000
7
STANDARD
72
0
100
AcDbText
0
POINT
5
603
100
AcDbEntity
8
DEFPOINTS
6
DOT2
62
11
100
AcDbPoint
10
2918.812406
20
296.459291
0
POINT
5
604
100
AcDbEntity
8
DEFPOINTS
6
DOT2
62
11
100
AcDbPoint
10
2918.812406
20
266.709291
0
POINT
5
605
100
AcDbEntity
8
DEFPOINTS
6
DOT2
62
11
100
AcDbPoint
10
2929.812406
20
266.709291
0
ENDBLK
5
606
100
AcDbEntity
8
1
100
AcDbBlockEnd
0
BLOCK
5
607
100
AcDbEntity
8
1
100
AcDbBlockBegin
2
*D123
70
65
10
0.000000
20
0.000000
3
*D
0
LINE
5
608
100
AcDbEntity
8
1
6
DOT2
62
11
100
AcDbLine
10
2921.312406
20
298.459291
11
2934.812406
21
298.459291
0
LINE
5
609
100
AcDbEntity
8
1
6
DOT2
62
11
100
AcDbLine
10
2921.312406
20
264.459291
11
2934.812406
21
264.459291
0
LINE
5
60a
100
AcDbEntity
8
1
6
DOT2
62
11
100
AcDbLine
10
2932.812406
20
298.459291
11
2932.812406
21
264.459291
0
INSERT
5
60b
100
AcDbEntity
8
1
6
DOT2
62
11
100
AcDbBlockReference
2
HALF
10
2932.812406
20
264.459291
41
0.116929
42
0.116929
43
0.116929
50
270.000000
0
INSERT
5
60c
100
AcDbEntity
8
1
6
DOT2
62
11
100
AcDbBlockReference
2
HALF
10
2932.812406
20
298.459291
41
0.116929
42
0.116929
43
0.116929
50
90.000000
0
TEXT
5
60d
100
AcDbEntity
8
1
62
11
100
AcDbText
10
2932.782074
20
280.525554
40
0.138583
41
0.825
1
34
50
90.000000
7
STANDARD
72
0
100
AcDbText
0
POINT
5
60e
100
AcDbEntity
8
DEFPOINTS
6
DOT2
62
11
100
AcDbPoint
10
2919.812406
20
298.459291
0
POINT
5
60f
100
AcDbEntity
8
DEFPOINTS
6
DOT2
62
11
100
AcDbPoint
10
2919.812406
20
264.459291
0
POINT
5
610
100
AcDbEntity
8
DEFPOINTS
6
DOT2
62
11
100
AcDbPoint
10
2932.812406
20
264.459291
0
ENDBLK
5
611
100
AcDbEntity
8
1
100
AcDbBlockEnd
0
BLOCK
5
612
100
AcDbEntity
8
1
100
AcDbBlockBegin
2
*D124
70
65
10
0.000000
20
0.000000
3
*D
0
LINE
5
613
100
AcDbEntity
8
1
6
DOT2
62
11
100
AcDbLine
10
2922.315857
20
294.317305
11
2918.653105
21
290.224704
0
LINE
5
614
100
AcDbEntity
8
1
6
DOT2
62
11
100
AcDbLine
10
2918.653105
20
290.224704
11
2912.284995
21
290.224704
0
INSERT
5
615
100
AcDbEntity
8
1
6
DOT2
62
11
100
AcDbBlockReference
2
HALF
10
2922.315857
20
294.317305
41
0.116929
42
0.116929
43
0.116929
50
48.172438
0
LINE
5
616
100
AcDbEntity
8
1
6
DOT2
62
11
100
AcDbLine
10
2919.728402
20
291.522973
11
2919.901630
21
291.522973
0
LINE
5
617
100
AcDbEntity
8
1
6
DOT2
62
11
100
AcDbLine
10
2919.815016
20
291.436358
11
2919.815016
21
291.609587
0
TEXT
5
618
100
AcDbEntity
8
1
62
11
100
AcDbText
10
2921.653459
20
290.255036
40
0.138583
41
0.825
1
R3.8
7
STANDARD
72
0
100
AcDbText
0
POINT
5
619
100
AcDbEntity
8
DEFPOINTS
6
DOT2
62
11
100
AcDbPoint
10
2922.315857
20
294.317305
0
POINT
5
61a
100
AcDbEntity
8
DEFPOINTS
6
DOT2
62
11
100
AcDbPoint
10
2919.815016
20
291.522973
0
ENDBLK
5
61b
100
AcDbEntity
8
1
100
AcDbBlockEnd
0
BLOCK
5
61c
100
AcDbEntity
8
1
100
AcDbBlockBegin
2
*D125
70
65
10
0.000000
20
0.000000
3
*D
0
LINE
5
61d
100
AcDbEntity
8
1
6
DOT2
62
11
100
AcDbLine
10
2903.486709
20
274.938848
11
2903.486709
21
260.938848
0
LINE
5
61e
100
AcDbEntity
8
1
6
DOT2
62
11
100
AcDbLine
10
2924.481677
20
274.938848
11
2924.481677
21
260.938848
0
LINE
5
61f
100
AcDbEntity
8
1
6
DOT2
62
11
100
AcDbLine
10
2903.486709
20
262.938848
11
2924.481677
21
262.938848
0
INSERT
5
620
100
AcDbEntity
8
1
6
DOT2
62
11
100
AcDbBlockReference
2
HALF
10
2903.486709
20
262.938848
41
0.116929
42
0.116929
43
0.116929
50
180.000000
0
INSERT
5
621
100
AcDbEntity
8
1
6
DOT2
62
11
100
AcDbBlockReference
2
HALF
10
2924.481677
20
262.938848
41
0.116929
42
0.116929
43
0.116929
0
TEXT
5
622
100
AcDbEntity
8
1
62
11
100
AcDbText
10
2913.844207
20
262.969180
40
0.138583
41
0.825
1
21
7
STANDARD
72
0
100
AcDbText
0
POINT
5
623
100
AcDbEntity
8
DEFPOINTS
6
DOT2
62
11
100
AcDbPoint
10
2903.486709
20
276.438848
0
POINT
5
624
100
AcDbEntity
8
DEFPOINTS
6
DOT2
62
11
100
AcDbPoint
10
2924.481677
20
276.438848
0
POINT
5
625
100
AcDbEntity
8
DEFPOINTS
6
DOT2
62
11
100
AcDbPoint
10
2924.481677
20
262.938848
0
ENDBLK
5
626
100
AcDbEntity
8
1
100
AcDbBlockEnd
0
BLOCK
5
627
100
AcDbEntity
8
1
100
AcDbBlockBegin
2
*D126
70
65
10
0.000000
20
0.000000
3
*D
0
LINE
5
628
100
AcDbEntity
8
1
6
DOT2
62
11
100
AcDbLine
10
2901.486709
20
271.367958
11
2901.486709
21
257.938848
0
LINE
5
629
100
AcDbEntity
8
1
6
DOT2
62
11
100
AcDbLine
10
2926.481677
20
270.438848
11
2926.481677
21
257.938848
0
LINE
5
62a
100
AcDbEntity
8
1
6
DOT2
62
11
100
AcDbLine
10
2901.486709
20
259.938848
11
2926.481677
21
259.938848
0
INSERT
5
62b
100
AcDbEntity
8
1
6
DOT2
62
11
100
AcDbBlockReference
2
HALF
10
2901.486709
20
259.938848
41
0.116929
42
0.116929
43
0.116929
50
180.000000
0
INSERT
5
62c
100
AcDbEntity
8
1
6
DOT2
62
11
100
AcDbBlockReference
2
HALF
10
2926.481677
20
259.938848
41
0.116929
42
0.116929
43
0.116929
0
TEXT
5
62d
100
AcDbEntity
8
1
62
11
100
AcDbText
10
2914.184385
20
259.969180
40
0.138583
41
0.825
1
25
7
STANDARD
72
0
100
AcDbText
0
POINT
5
62e
100
AcDbEntity
8
DEFPOINTS
6
DOT2
62
11
100
AcDbPoint
10
2901.486709
20
272.867958
0
POINT
5
62f
100
AcDbEntity
8
DEFPOINTS
6
DOT2
62
11
100
AcDbPoint
10
2926.481677
20
271.938848
0
POINT
5
630
100
AcDbEntity
8
DEFPOINTS
6
DOT2
62
11
100
AcDbPoint
10
2926.481677
20
259.938848
0
ENDBLK
5
631
100
AcDbEntity
8
1
100
AcDbBlockEnd
0
BLOCK
5
632
100
AcDbEntity
8
1
100
AcDbBlockBegin
2
*D127
70
65
10
0.000000
20
0.000000
3
*D
0
LINE
5
633
100
AcDbEntity
8
1
6
DOT2
62
11
100
AcDbLine
10
2902.757572
20
295.960911
11
2908.486709
21
291.938848
0
INSERT
5
634
100
AcDbEntity
8
1
6
DOT2
62
11
100
AcDbBlockReference
2
HALF
10
2902.757572
20
295.960911
41
0.116929
42
0.116929
43
0.116929
50
144.929746
0
LINE
5
635
100
AcDbEntity
8
1
6
DOT2
62
11
100
AcDbLine
10
2908.486709
20
291.938848
11
2902.757572
21
295.960911
0
TEXT
5
636
100
AcDbEntity
8
1
62
11
100
AcDbText
10
2899.060344
20
298.593560
40
0.138583
41
0.825
1
R7
50
-35.070254
7
STANDARD
72
0
100
AcDbText
0
POINT
5
637
100
AcDbEntity
8
DEFPOINTS
6
DOT2
62
11
100
AcDbPoint
10
2902.757572
20
295.960911
0
POINT
5
638
100
AcDbEntity
8
DEFPOINTS
6
DOT2
62
11
100
AcDbPoint
10
2908.486709
20
291.938848
0
ENDBLK
5
639
100
AcDbEntity
8
1
100
AcDbBlockEnd
0
BLOCK
5
63a
100
AcDbEntity
8
1
100
AcDbBlockBegin
2
*D128
70
65
10
0.000000
20
0.000000
3
*D
0
LINE
5
63b
100
AcDbEntity
8
1
6
DOT2
62
11
100
AcDbLine
10
2906.172525
20
296.371066
11
2908.486709
21
291.938848
0
INSERT
5
63c
100
AcDbEntity
8
1
6
DOT2
62
11
100
AcDbBlockReference
2
HALF
10
2906.172525
20
296.371066
41
0.116929
42
0.116929
43
0.116929
50
117.570303
0
LINE
5
63d
100
AcDbEntity
8
1
6
DOT2
62
11
100
AcDbLine
10
2908.486709
20
291.938848
11
2906.172525
21
296.371066
0
TEXT
5
63e
100
AcDbEntity
8
1
62
11
100
AcDbText
10
2904.080912
20
300.442545
40
0.138583
41
0.825
1
R5
50
-62.429697
7
STANDARD
72
0
100
AcDbText
0
POINT
5
63f
100
AcDbEntity
8
DEFPOINTS
6
DOT2
62
11
100
AcDbPoint
10
2906.172525
20
296.371066
0
POINT
5
640
100
AcDbEntity
8
DEFPOINTS
6
DOT2
62
11
100
AcDbPoint
10
2908.486709
20
291.938848
0
ENDBLK
5
641
100
AcDbEntity
8
1
100
AcDbBlockEnd
0
BLOCK
5
642
100
AcDbEntity
8
1
100
AcDbBlockBegin
2
*D129
70
65
10
0.000000
20
0.000000
3
*D
0
LINE
5
643
100
AcDbEntity
8
1
6
DOT2
62
11
100
AcDbLine
10
2919.981677
20
296.938848
11
2931.481677
21
296.938848
0
LINE
5
644
100
AcDbEntity
8
1
6
DOT2
62
11
100
AcDbLine
10
2919.981677
20
267.188848
11
2931.481677
21
267.188848
0
LINE
5
645
100
AcDbEntity
8
1
6
DOT2
62
11
100
AcDbLine
10
2929.481677
20
296.938848
11
2929.481677
21
267.188848
0
INSERT
5
646
100
AcDbEntity
8
1
6
DOT2
62
11
100
AcDbBlockReference
2
HALF
10
2929.481677
20
267.188848
41
0.116929
42
0.116929
43
0.116929
50
270.000000
0
INSERT
5
647
100
AcDbEntity
8
1
6
DOT2
62
11
100
AcDbBlockReference
2
HALF
10
2929.481677
20
296.938848
41
0.116929
42
0.116929
43
0.116929
50
90.000000
0
TEXT
5
648
100
AcDbEntity
8
1
62
11
100
AcDbText
10
2929.451345
20
281.704625
40
0.138583
41
0.825
1
29.8
50
90.000000
7
STANDARD
72
0
100
AcDbText
0
POINT
5
649
100
AcDbEntity
8
DEFPOINTS
6
DOT2
62
11
100
AcDbPoint
10
2918.481677
20
296.938848
0
POINT
5
64a
100
AcDbEntity
8
DEFPOINTS
6
DOT2
62
11
100
AcDbPoint
10
2918.481677
20
267.188848
0
POINT
5
64b
100
AcDbEntity
8
DEFPOINTS
6
DOT2
62
11
100
AcDbPoint
10
2929.481677
20
267.188848
0
ENDBLK
5
64c
100
AcDbEntity
8
1
100
AcDbBlockEnd
0
BLOCK
5
64d
100
AcDbEntity
8
1
100
AcDbBlockBegin
2
*D130
70
65
10
0.000000
20
0.000000
3
*D
0
LINE
5
64e
100
AcDbEntity
8
1
6
DOT2
62
11
100
AcDbLine
10
2920.981677
20
298.938848
11
2934.481677
21
298.938848
0
LINE
5
64f
100
AcDbEntity
8
1
6
DOT2
62
11
100
AcDbLine
10
2920.981677
20
264.938848
11
2934.481677
21
264.938848
0
LINE
5
650
100
AcDbEntity
8
1
6
DOT2
62
11
100
AcDbLine
10
2932.481677
20
298.938848
11
2932.481677
21
264.938848
0
INSERT
5
651
100
AcDbEntity
8
1
6
DOT2
62
11
100
AcDbBlockReference
2
HALF
10
2932.481677
20
264.938848
41
0.116929
42
0.116929
43
0.116929
50
270.000000
0
INSERT
5
652
100
AcDbEntity
8
1
6
DOT2
62
11
100
AcDbBlockReference
2
HALF
10
2932.481677
20
298.938848
41
0.116929
42
0.116929
43
0.116929
50
90.000000
0
TEXT
5
653
100
AcDbEntity
8
1
62
11
100
AcDbText
10
2932.451345
20
281.005112
40
0.138583
41
0.825
1
34
50
90.000000
7
STANDARD
72
0
100
AcDbText
0
POINT
5
654
100
AcDbEntity
8
DEFPOINTS
6
DOT2
62
11
100
AcDbPoint
10
2919.481677
20
298.938848
0
POINT
5
655
100
AcDbEntity
8
DEFPOINTS
6
DOT2
62
11
100
AcDbPoint
10
2919.481677
20
264.938848
0
POINT
5
656
100
AcDbEntity
8
DEFPOINTS
6
DOT2
62
11
100
AcDbPoint
10
2932.481677
20
264.938848
0
ENDBLK
5
657
100
AcDbEntity
8
1
100
AcDbBlockEnd
0
BLOCK
5
658
100
AcDbEntity
8
1
100
AcDbBlockBegin
2
*D131
70
65
10
0.000000
20
0.000000
3
*D
0
LINE
5
659
100
AcDbEntity
8
1
6
DOT2
62
11
100
AcDbLine
10
2921.985128
20
294.796862
11
2918.322376
21
290.704261
0
LINE
5
65a
100
AcDbEntity
8
1
6
DOT2
62
11
100
AcDbLine
10
2918.322376
20
290.704261
11
2911.954266
21
290.704261
0
INSERT
5
65b
100
AcDbEntity
8
1
6
DOT2
62
11
100
AcDbBlockReference
2
HALF
10
2921.985128
20
294.796862
41
0.116929
42
0.116929
43
0.116929
50
48.172438
0
LINE
5
65c
100
AcDbEntity
8
1
6
DOT2
62
11
100
AcDbLine
10
2919.397672
20
292.002530
11
2919.570901
21
292.002530
0
LINE
5
65d
100
AcDbEntity
8
1
6
DOT2
62
11
100
AcDbLine
10
2919.484287
20
291.915916
11
2919.484287
21
292.089144
0
TEXT
5
65e
100
AcDbEntity
8
1
62
11
100
AcDbText
10
2921.322730
20
290.734593
40
0.138583
41
0.825
1
R3.8
7
STANDARD
72
0
100
AcDbText
0
POINT
5
65f
100
AcDbEntity
8
DEFPOINTS
6
DOT2
62
11
100
AcDbPoint
10
2921.985128
20
294.796862
0
POINT
5
660
100
AcDbEntity
8
DEFPOINTS
6
DOT2
62
11
100
AcDbPoint
10
2919.484287
20
292.002530
0
ENDBLK
5
661
100
AcDbEntity
8
1
100
AcDbBlockEnd
0
BLOCK
5
662
100
AcDbEntity
8
1
100
AcDbBlockBegin
2
*D132
70
65
10
0.000000
20
0.000000
3
*D
0
LINE
5
663
100
AcDbEntity
8
1
6
DOT2
62
11
100
AcDbLine
10
2972.404159
20
263.959291
11
2972.404159
21
254.459291
0
LINE
5
664
100
AcDbEntity
8
1
6
DOT2
62
11
100
AcDbLine
10
2962.897263
20
279.959291
11
2962.897263
21
254.459291
0
LINE
5
665
100
AcDbEntity
8
1
6
DOT2
62
11
100
AcDbLine
10
2972.404159
20
256.459291
11
2962.897263
21
256.459291
0
INSERT
5
666
100
AcDbEntity
8
1
6
DOT2
62
11
100
AcDbBlockReference
2
HALF
10
2972.404159
20
256.459291
41
0.116929
42
0.116929
43
0.116929
0
INSERT
5
667
100
AcDbEntity
8
1
6
DOT2
62
11
100
AcDbBlockReference
2
HALF
10
2962.897263
20
256.459291
41
0.116929
42
0.116929
43
0.116929
50
180.000000
0
TEXT
5
668
100
AcDbEntity
8
1
62
11
100
AcDbText
10
2966.541849
20
256.489623
40
0.138583
41
0.825
1
9.5
7
STANDARD
72
0
100
AcDbText
0
POINT
5
669
100
AcDbEntity
8
DEFPOINTS
6
DOT2
62
11
100
AcDbPoint
10
2972.404159
20
265.459291
0
POINT
5
66a
100
AcDbEntity
8
DEFPOINTS
6
DOT2
62
11
100
AcDbPoint
10
2962.897263
20
281.459291
0
POINT
5
66b
100
AcDbEntity
8
DEFPOINTS
6
DOT2
62
11
100
AcDbPoint
10
2962.897263
20
256.459291
0
ENDBLK
5
66c
100
AcDbEntity
8
1
100
AcDbBlockEnd
0
BLOCK
5
66d
100
AcDbEntity
8
1
100
AcDbBlockBegin
2
*D133
70
65
10
0.000000
20
0.000000
3
*D
0
LINE
5
66e
100
AcDbEntity
8
1
6
DOT2
62
11
100
AcDbLine
10
2972.404159
20
263.959291
11
2972.404159
21
260.459291
0
LINE
5
66f
100
AcDbEntity
8
1
6
DOT2
62
11
100
AcDbLine
10
2971.404159
20
260.959291
11
2971.404159
21
260.459291
0
LINE
5
670
100
AcDbEntity
8
1
6
DOT2
62
11
100
AcDbLine
10
2971.404159
20
262.459291
11
2968.831078
21
262.459291
0
LINE
5
671
100
AcDbEntity
8
1
6
DOT2
62
11
100
AcDbLine
10
2972.404159
20
262.459291
11
2974.977240
21
262.459291
0
LINE
5
672
100
AcDbEntity
8
1
6
DOT2
62
11
100
AcDbLine
10
2972.404159
20
262.459291
11
2971.404159
21
262.459291
0
INSERT
5
673
100
AcDbEntity
8
1
6
DOT2
62
11
100
AcDbBlockReference
2
HALF
10
2972.404159
20
262.459291
41
0.116929
42
0.116929
43
0.116929
50
180.000000
0
INSERT
5
674
100
AcDbEntity
8
1
6
DOT2
62
11
100
AcDbBlockReference
2
HALF
10
2971.404159
20
262.459291
41
0.116929
42
0.116929
43
0.116929
0
TEXT
5
675
100
AcDbEntity
8
1
62
11
100
AcDbText
10
2977.391289
20
262.489623
40
0.138583
41
0.825
1
1
7
STANDARD
72
0
100
AcDbText
0
POINT
5
676
100
AcDbEntity
8
DEFPOINTS
6
DOT2
62
11
100
AcDbPoint
10
2972.404159
20
265.459291
0
POINT
5
677
100
AcDbEntity
8
DEFPOINTS
6
DOT2
62
11
100
AcDbPoint
10
2971.404159
20
262.459291
0
POINT
5
678
100
AcDbEntity
8
DEFPOINTS
6
DOT2
62
11
100
AcDbPoint
10
2971.404159
20
262.459291
0
ENDBLK
5
679
100
AcDbEntity
8
1
100
AcDbBlockEnd
0
BLOCK
5
67a
100
AcDbEntity
8
1
100
AcDbBlockBegin
2
*D134
70
65
10
0.000000
20
0.000000
3
*D
0
LINE
5
67b
100
AcDbEntity
8
1
6
DOT2
62
11
100
AcDbLine
10
2972.404159
20
263.959291
11
2972.404159
21
257.459291
0
LINE
5
67c
100
AcDbEntity
8
1
6
DOT2
62
11
100
AcDbLine
10
2965.404159
20
267.459291
11
2965.404159
21
257.459291
0
LINE
5
67d
100
AcDbEntity
8
1
6
DOT2
62
11
100
AcDbLine
10
2972.404159
20
259.459291
11
2965.404159
21
259.459291
0
INSERT
5
67e
100
AcDbEntity
8
1
6
DOT2
62
11
100
AcDbBlockReference
2
HALF
10
2972.404159
20
259.459291
41
0.116929
42
0.116929
43
0.116929
0
INSERT
5
67f
100
AcDbEntity
8
1
6
DOT2
62
11
100
AcDbBlockReference
2
HALF
10
2965.404159
20
259.459291
41
0.116929
42
0.116929
43
0.116929
50
180.000000
0
TEXT
5
680
100
AcDbEntity
8
1
62
11
100
AcDbText
10
2968.381071
20
259.489623
40
0.138583
41
0.825
1
7
7
STANDARD
72
0
100
AcDbText
0
POINT
5
681
100
AcDbEntity
8
DEFPOINTS
6
DOT2
62
11
100
AcDbPoint
10
2972.404159
20
265.459291
0
POINT
5
682
100
AcDbEntity
8
DEFPOINTS
6
DOT2
62
11
100
AcDbPoint
10
2965.404159
20
268.959291
0
POINT
5
683
100
AcDbEntity
8
DEFPOINTS
6
DOT2
62
11
100
AcDbPoint
10
2965.404159
20
259.459291
0
ENDBLK
5
684
100
AcDbEntity
8
1
100
AcDbBlockEnd
0
BLOCK
5
685
100
AcDbEntity
8
1
100
AcDbBlockBegin
2
*D135
70
65
10
0.000000
20
0.000000
3
*D
0
LINE
5
686
100
AcDbEntity
8
1
6
DOT2
62
11
100
AcDbLine
10
2970.731134
20
298.198911
11
2969.170878
21
299.913554
0
LINE
5
687
100
AcDbEntity
8
1
6
DOT2
62
11
100
AcDbLine
10
2969.170878
20
299.913554
11
2962.975996
21
299.913554
0
INSERT
5
688
100
AcDbEntity
8
1
6
DOT2
62
11
100
AcDbBlockReference
2
HALF
10
2970.731134
20
298.198911
41
0.116929
42
0.116929
43
0.116929
50
312.300939
0
LINE
5
689
100
AcDbEntity
8
1
6
DOT2
62
11
100
AcDbLine
10
2971.317545
20
297.459291
11
2971.490773
21
297.459291
0
LINE
5
68a
100
AcDbEntity
8
1
6
DOT2
62
11
100
AcDbLine
10
2971.404159
20
297.372676
11
2971.404159
21
297.545905
0
TEXT
5
68b
100
AcDbEntity
8
1
62
11
100
AcDbText
10
2966.107443
20
299.943886
40
0.138583
41
0.825
1
R1
7
STANDARD
72
0
100
AcDbText
0
POINT
5
68c
100
AcDbEntity
8
DEFPOINTS
6
DOT2
62
11
100
AcDbPoint
10
2970.731134
20
298.198911
0
POINT
5
68d
100
AcDbEntity
8
DEFPOINTS
6
DOT2
62
11
100
AcDbPoint
10
2971.404159
20
297.459291
0
ENDBLK
5
68e
100
AcDbEntity
8
1
100
AcDbBlockEnd
0
BLOCK
5
68f
100
AcDbEntity
8
1
100
AcDbBlockBegin
2
*D136
70
65
10
0.000000
20
0.000000
3
*D
0
LINE
5
690
100
AcDbEntity
8
1
6
DOT2
62
11
100
AcDbLine
10
2973.904159
20
294.959291
11
2983.404159
21
294.959291
0
LINE
5
691
100
AcDbEntity
8
1
6
DOT2
62
11
100
AcDbLine
10
2973.904159
20
267.959291
11
2983.404159
21
267.959291
0
LINE
5
692
100
AcDbEntity
8
1
6
DOT2
62
11
100
AcDbLine
10
2981.404159
20
294.959291
11
2981.404159
21
267.959291
0
INSERT
5
693
100
AcDbEntity
8
1
6
DOT2
62
11
100
AcDbBlockReference
2
HALF
10
2981.404159
20
267.959291
41
0.116929
42
0.116929
43
0.116929
50
270.000000
0
INSERT
5
694
100
AcDbEntity
8
1
6
DOT2
62
11
100
AcDbBlockReference
2
HALF
10
2981.404159
20
294.959291
41
0.116929
42
0.116929
43
0.116929
50
90.000000
0
TEXT
5
695
100
AcDbEntity
8
1
62
11
100
AcDbText
10
2981.373827
20
280.994754
40
0.138583
41
0.825
1
27
50
90.000000
7
STANDARD
72
0
100
AcDbText
0
POINT
5
696
100
AcDbEntity
8
DEFPOINTS
6
DOT2
62
11
100
AcDbPoint
10
2972.404159
20
294.959291
0
POINT
5
697
100
AcDbEntity
8
DEFPOINTS
6
DOT2
62
11
100
AcDbPoint
10
2972.404159
20
267.959291
0
POINT
5
698
100
AcDbEntity
8
DEFPOINTS
6
DOT2
62
11
100
AcDbPoint
10
2981.404159
20
267.959291
0
ENDBLK
5
699
100
AcDbEntity
8
1
100
AcDbBlockEnd
0
BLOCK
5
69a
100
AcDbEntity
8
1
100
AcDbBlockBegin
2
*D137
70
65
10
0.000000
20
0.000000
3
*D
0
LINE
5
69b
100
AcDbEntity
8
1
6
DOT2
62
11
100
AcDbLine
10
2973.904159
20
286.950842
11
2980.404159
21
286.950842
0
LINE
5
69c
100
AcDbEntity
8
1
6
DOT2
62
11
100
AcDbLine
10
2973.904159
20
275.950842
11
2980.404159
21
275.950842
0
LINE
5
69d
100
AcDbEntity
8
1
6
DOT2
62
11
100
AcDbLine
10
2978.404159
20
286.950842
11
2978.404159
21
275.950842
0
INSERT
5
69e
100
AcDbEntity
8
1
6
DOT2
62
11
100
AcDbBlockReference
2
HALF
10
2978.404159
20
275.950842
41
0.116929
42
0.116929
43
0.116929
50
270.000000
0
INSERT
5
69f
100
AcDbEntity
8
1
6
DOT2
62
11
100
AcDbBlockReference
2
HALF
10
2978.404159
20
286.950842
41
0.116929
42
0.116929
43
0.116929
50
90.000000
0
TEXT
5
6a0
100
AcDbEntity
8
1
62
11
100
AcDbText
10
2978.373827
20
281.079927
40
0.138583
41
0.825
1
%%c11
50
90.000000
7
STANDARD
72
0
100
AcDbText
0
POINT
5
6a1
100
AcDbEntity
8
DEFPOINTS
6
DOT2
62
11
100
AcDbPoint
10
2972.404159
20
286.950842
0
POINT
5
6a2
100
AcDbEntity
8
DEFPOINTS
6
DOT2
62
11
100
AcDbPoint
10
2972.404159
20
275.950842
0
POINT
5
6a3
100
AcDbEntity
8
DEFPOINTS
6
DOT2
62
11
100
AcDbPoint
10
2978.404159
20
275.950842
0
ENDBLK
5
6a4
100
AcDbEntity
8
1
100
AcDbBlockEnd
0
BLOCK
5
6a5
100
AcDbEntity
8
1
100
AcDbBlockBegin
2
*D138
70
65
10
0.000000
20
0.000000
3
*D
0
LINE
5
6a6
100
AcDbEntity
8
1
6
DOT2
62
11
100
AcDbLine
10
2972.073430
20
264.438848
11
2972.073430
21
254.938848
0
LINE
5
6a7
100
AcDbEntity
8
1
6
DOT2
62
11
100
AcDbLine
10
2962.566534
20
280.438848
11
2962.566534
21
254.938848
0
LINE
5
6a8
100
AcDbEntity
8
1
6
DOT2
62
11
100
AcDbLine
10
2972.073430
20
256.938848
11
2962.566534
21
256.938848
0
INSERT
5
6a9
100
AcDbEntity
8
1
6
DOT2
62
11
100
AcDbBlockReference
2
HALF
10
2972.073430
20
256.938848
41
0.116929
42
0.116929
43
0.116929
0
INSERT
5
6aa
100
AcDbEntity
8
1
6
DOT2
62
11
100
AcDbBlockReference
2
HALF
10
2962.566534
20
256.938848
41
0.116929
42
0.116929
43
0.116929
50
180.000000
0
TEXT
5
6ab
100
AcDbEntity
8
1
62
11
100
AcDbText
10
2966.211119
20
256.969180
40
0.138583
41
0.825
1
9.5
7
STANDARD
72
0
100
AcDbText
0
POINT
5
6ac
100
AcDbEntity
8
DEFPOINTS
6
DOT2
62
11
100
AcDbPoint
10
2972.073430
20
265.938848
0
POINT
5
6ad
100
AcDbEntity
8
DEFPOINTS
6
DOT2
62
11
100
AcDbPoint
10
2962.566534
20
281.938848
0
POINT
5
6ae
100
AcDbEntity
8
DEFPOINTS
6
DOT2
62
11
100
AcDbPoint
10
2962.566534
20
256.938848
0
ENDBLK
5
6af
100
AcDbEntity
8
1
100
AcDbBlockEnd
0
BLOCK
5
6b0
100
AcDbEntity
8
1
100
AcDbBlockBegin
2
*D139
70
65
10
0.000000
20
0.000000
3
*D
0
LINE
5
6b1
100
AcDbEntity
8
1
6
DOT2
62
11
100
AcDbLine
10
2972.073430
20
264.438848
11
2972.073430
21
260.938848
0
LINE
5
6b2
100
AcDbEntity
8
1
6
DOT2
62
11
100
AcDbLine
10
2971.073430
20
261.438848
11
2971.073430
21
260.938848
0
LINE
5
6b3
100
AcDbEntity
8
1
6
DOT2
62
11
100
AcDbLine
10
2971.073430
20
262.938848
11
2968.500349
21
262.938848
0
LINE
5
6b4
100
AcDbEntity
8
1
6
DOT2
62
11
100
AcDbLine
10
2972.073430
20
262.938848
11
2974.646511
21
262.938848
0
LINE
5
6b5
100
AcDbEntity
8
1
6
DOT2
62
11
100
AcDbLine
10
2972.073430
20
262.938848
11
2971.073430
21
262.938848
0
INSERT
5
6b6
100
AcDbEntity
8
1
6
DOT2
62
11
100
AcDbBlockReference
2
HALF
10
2972.073430
20
262.938848
41
0.116929
42
0.116929
43
0.116929
50
180.000000
0
INSERT
5
6b7
100
AcDbEntity
8
1
6
DOT2
62
11
100
AcDbBlockReference
2
HALF
10
2971.073430
20
262.938848
41
0.116929
42
0.116929
43
0.116929
0
TEXT
5
6b8
100
AcDbEntity
8
1
62
11
100
AcDbText
10
2977.060560
20
262.969180
40
0.138583
41
0.825
1
1
7
STANDARD
72
0
100
AcDbText
0
POINT
5
6b9
100
AcDbEntity
8
DEFPOINTS
6
DOT2
62
11
100
AcDbPoint
10
2972.073430
20
265.938848
0
POINT
5
6ba
100
AcDbEntity
8
DEFPOINTS
6
DOT2
62
11
100
AcDbPoint
10
2971.073430
20
262.938848
0
POINT
5
6bb
100
AcDbEntity
8
DEFPOINTS
6
DOT2
62
11
100
AcDbPoint
10
2971.073430
20
262.938848
0
ENDBLK
5
6bc
100
AcDbEntity
8
1
100
AcDbBlockEnd
0
BLOCK
5
6bd
100
AcDbEntity
8
1
100
AcDbBlockBegin
2
*D140
70
65
10
0.000000
20
0.000000
3
*D
0
LINE
5
6be
100
AcDbEntity
8
1
6
DOT2
62
11
100
AcDbLine
10
2972.073430
20
264.438848
11
2972.073430
21
257.938848
0
LINE
5
6bf
100
AcDbEntity
8
1
6
DOT2
62
11
100
AcDbLine
10
2965.073430
20
267.938848
11
2965.073430
21
257.938848
0
LINE
5
6c0
100
AcDbEntity
8
1
6
DOT2
62
11
100
AcDbLine
10
2972.073430
20
259.938848
11
2965.073430
21
259.938848
0
INSERT
5
6c1
100
AcDbEntity
8
1
6
DOT2
62
11
100
AcDbBlockReference
2
HALF
10
2972.073430
20
259.938848
41
0.116929
42
0.116929
43
0.116929
0
INSERT
5
6c2
100
AcDbEntity
8
1
6
DOT2
62
11
100
AcDbBlockReference
2
HALF
10
2965.073430
20
259.938848
41
0.116929
42
0.116929
43
0.116929
50
180.000000
0
TEXT
5
6c3
100
AcDbEntity
8
1
62
11
100
AcDbText
10
2968.050342
20
259.969180
40
0.138583
41
0.825
1
7
7
STANDARD
72
0
100
AcDbText
0
POINT
5
6c4
100
AcDbEntity
8
DEFPOINTS
6
DOT2
62
11
100
AcDbPoint
10
2972.073430
20
265.938848
0
POINT
5
6c5
100
AcDbEntity
8
DEFPOINTS
6
DOT2
62
11
100
AcDbPoint
10
2965.073430
20
269.438848
0
POINT
5
6c6
100
AcDbEntity
8
DEFPOINTS
6
DOT2
62
11
100
AcDbPoint
10
2965.073430
20
259.938848
0
ENDBLK
5
6c7
100
AcDbEntity
8
1
100
AcDbBlockEnd
0
BLOCK
5
6c8
100
AcDbEntity
8
1
100
AcDbBlockBegin
2
*D141
70
65
10
0.000000
20
0.000000
3
*D
0
LINE
5
6c9
100
AcDbEntity
8
1
6
DOT2
62
11
100
AcDbLine
10
2970.400405
20
298.678468
11
2968.840148
21
300.393111
0
LINE
5
6ca
100
AcDbEntity
8
1
6
DOT2
62
11
100
AcDbLine
10
2968.840148
20
300.393111
11
2962.645266
21
300.393111
0
INSERT
5
6cb
100
AcDbEntity
8
1
6
DOT2
62
11
100
AcDbBlockReference
2
HALF
10
2970.400405
20
298.678468
41
0.116929
42
0.116929
43
0.116929
50
312.300939
0
LINE
5
6cc
100
AcDbEntity
8
1
6
DOT2
62
11
100
AcDbLine
10
2970.986816
20
297.938848
11
2971.160044
21
297.938848
0
LINE
5
6cd
100
AcDbEntity
8
1
6
DOT2
62
11
100
AcDbLine
10
2971.073430
20
297.852234
11
2971.073430
21
298.025462
0
TEXT
5
6ce
100
AcDbEntity
8
1
62
11
100
AcDbText
10
2965.776713
20
300.423444
40
0.138583
41
0.825
1
R1
7
STANDARD
72
0
100
AcDbText
0
POINT
5
6cf
100
AcDbEntity
8
DEFPOINTS
6
DOT2
62
11
100
AcDbPoint
10
2970.400405
20
298.678468
0
POINT
5
6d0
100
AcDbEntity
8
DEFPOINTS
6
DOT2
62
11
100
AcDbPoint
10
2971.073430
20
297.938848
0
ENDBLK
5
6d1
100
AcDbEntity
8
1
100
AcDbBlockEnd
0
BLOCK
5
6d2
100
AcDbEntity
8
1
100
AcDbBlockBegin
2
*D142
70
65
10
0.000000
20
0.000000
3
*D
0
LINE
5
6d3
100
AcDbEntity
8
1
6
DOT2
62
11
100
AcDbLine
10
2973.573430
20
295.438848
11
2983.073430
21
295.438848
0
LINE
5
6d4
100
AcDbEntity
8
1
6
DOT2
62
11
100
AcDbLine
10
2973.573430
20
268.438848
11
2983.073430
21
268.438848
0
LINE
5
6d5
100
AcDbEntity
8
1
6
DOT2
62
11
100
AcDbLine
10
2981.073430
20
295.438848
11
2981.073430
21
268.438848
0
INSERT
5
6d6
100
AcDbEntity
8
1
6
DOT2
62
11
100
AcDbBlockReference
2
HALF
10
2981.073430
20
268.438848
41
0.116929
42
0.116929
43
0.116929
50
270.000000
0
INSERT
5
6d7
100
AcDbEntity
8
1
6
DOT2
62
11
100
AcDbBlockReference
2
HALF
10
2981.073430
20
295.438848
41
0.116929
42
0.116929
43
0.116929
50
90.000000
0
TEXT
5
6d8
100
AcDbEntity
8
1
62
11
100
AcDbText
10
2981.043098
20
281.474311
40
0.138583
41
0.825
1
27
50
90.000000
7
STANDARD
72
0
100
AcDbText
0
POINT
5
6d9
100
AcDbEntity
8
DEFPOINTS
6
DOT2
62
11
100
AcDbPoint
10
2972.073430
20
295.438848
0
POINT
5
6da
100
AcDbEntity
8
DEFPOINTS
6
DOT2
62
11
100
AcDbPoint
10
2972.073430
20
268.438848
0
POINT
5
6db
100
AcDbEntity
8
DEFPOINTS
6
DOT2
62
11
100
AcDbPoint
10
2981.073430
20
268.438848
0
ENDBLK
5
6dc
100
AcDbEntity
8
1
100
AcDbBlockEnd
0
BLOCK
5
6dd
100
AcDbEntity
8
1
100
AcDbBlockBegin
2
*D143
70
65
10
0.000000
20
0.000000
3
*D
0
LINE
5
6de
100
AcDbEntity
8
1
6
DOT2
62
11
100
AcDbLine
10
2973.573430
20
287.430399
11
2980.073430
21
287.430399
0
LINE
5
6df
100
AcDbEntity
8
1
6
DOT2
62
11
100
AcDbLine
10
2973.573430
20
276.430399
11
2980.073430
21
276.430399
0
LINE
5
6e0
100
AcDbEntity
8
1
6
DOT2
62
11
100
AcDbLine
10
2978.073430
20
287.430399
11
2978.073430
21
276.430399
0
INSERT
5
6e1
100
AcDbEntity
8
1
6
DOT2
62
11
100
AcDbBlockReference
2
HALF
10
2978.073430
20
276.430399
41
0.116929
42
0.116929
43
0.116929
50
270.000000
0
INSERT
5
6e2
100
AcDbEntity
8
1
6
DOT2
62
11
100
AcDbBlockReference
2
HALF
10
2978.073430
20
287.430399
41
0.116929
42
0.116929
43
0.116929
50
90.000000
0
TEXT
5
6e3
100
AcDbEntity
8
1
62
11
100
AcDbText
10
2978.043098
20
281.559485
40
0.138583
41
0.825
1
%%c11
50
90.000000
7
STANDARD
72
0
100
AcDbText
0
POINT
5
6e4
100
AcDbEntity
8
DEFPOINTS
6
DOT2
62
11
100
AcDbPoint
10
2972.073430
20
287.430399
0
POINT
5
6e5
100
AcDbEntity
8
DEFPOINTS
6
DOT2
62
11
100
AcDbPoint
10
2972.073430
20
276.430399
0
POINT
5
6e6
100
AcDbEntity
8
DEFPOINTS
6
DOT2
62
11
100
AcDbPoint
10
2978.073430
20
276.430399
0
ENDBLK
5
6e7
100
AcDbEntity
8
1
100
AcDbBlockEnd
0
BLOCK
5
6e8
100
AcDbEntity
8
1
100
AcDbBlockBegin
2
*D144
70
65
10
0.000000
20
0.000000
3
*D
0
LINE
5
6e9
100
AcDbEntity
8
1
6
DOT2
62
11
100
AcDbLine
10
2948.303407
20
434.775901
11
2948.303407
21
421.346791
0
LINE
5
6ea
100
AcDbEntity
8
1
6
DOT2
62
11
100
AcDbLine
10
2973.298375
20
433.846791
11
2973.298375
21
421.346791
0
LINE
5
6eb
100
AcDbEntity
8
1
6
DOT2
62
11
100
AcDbLine
10
2948.303407
20
423.346791
11
2973.298375
21
423.346791
0
INSERT
5
6ec
100
AcDbEntity
8
1
6
DOT2
62
11
100
AcDbBlockReference
2
HALF
10
2948.303407
20
423.346791
41
0.116929
42
0.116929
43
0.116929
50
180.000000
0
INSERT
5
6ed
100
AcDbEntity
8
1
6
DOT2
62
11
100
AcDbBlockReference
2
HALF
10
2973.298375
20
423.346791
41
0.116929
42
0.116929
43
0.116929
0
TEXT
5
6ee
100
AcDbEntity
8
1
62
11
100
AcDbText
10
2961.001083
20
423.377123
40
0.138583
41
0.825
1
25
7
STANDARD
72
0
100
AcDbText
0
POINT
5
6ef
100
AcDbEntity
8
DEFPOINTS
6
DOT2
62
11
100
AcDbPoint
10
2948.303407
20
436.275901
0
POINT
5
6f0
100
AcDbEntity
8
DEFPOINTS
6
DOT2
62
11
100
AcDbPoint
10
2973.298375
20
435.346791
0
POINT
5
6f1
100
AcDbEntity
8
DEFPOINTS
6
DOT2
62
11
100
AcDbPoint
10
2973.298375
20
423.346791
0
ENDBLK
5
6f2
100
AcDbEntity
8
1
100
AcDbBlockEnd
0
BLOCK
5
6f3
100
AcDbEntity
8
1
100
AcDbBlockBegin
2
*D145
70
65
10
0.000000
20
0.000000
3
*D
0
LINE
5
6f4
100
AcDbEntity
8
1
6
DOT2
62
11
100
AcDbLine
10
2950.303407
20
438.346791
11
2950.303407
21
424.346791
0
LINE
5
6f5
100
AcDbEntity
8
1
6
DOT2
62
11
100
AcDbLine
10
2971.298375
20
438.346791
11
2971.298375
21
424.346791
0
LINE
5
6f6
100
AcDbEntity
8
1
6
DOT2
62
11
100
AcDbLine
10
2950.303407
20
426.346791
11
2971.298375
21
426.346791
0
INSERT
5
6f7
100
AcDbEntity
8
1
6
DOT2
62
11
100
AcDbBlockReference
2
HALF
10
2950.303407
20
426.346791
41
0.116929
42
0.116929
43
0.116929
50
180.000000
0
INSERT
5
6f8
100
AcDbEntity
8
1
6
DOT2
62
11
100
AcDbBlockReference
2
HALF
10
2971.298375
20
426.346791
41
0.116929
42
0.116929
43
0.116929
0
TEXT
5
6f9
100
AcDbEntity
8
1
62
11
100
AcDbText
10
2960.660905
20
426.377123
40
0.138583
41
0.825
1
21
7
STANDARD
72
0
100
AcDbText
0
POINT
5
6fa
100
AcDbEntity
8
DEFPOINTS
6
DOT2
62
11
100
AcDbPoint
10
2950.303407
20
439.846791
0
POINT
5
6fb
100
AcDbEntity
8
DEFPOINTS
6
DOT2
62
11
100
AcDbPoint
10
2971.298375
20
439.846791
0
POINT
5
6fc
100
AcDbEntity
8
DEFPOINTS
6
DOT2
62
11
100
AcDbPoint
10
2971.298375
20
426.346791
0
ENDBLK
5
6fd
100
AcDbEntity
8
1
100
AcDbBlockEnd
0
BLOCK
5
6fe
100
AcDbEntity
8
1
100
AcDbBlockBegin
2
*D146
70
65
10
0.000000
20
0.000000
3
*D
0
LINE
5
6ff
100
AcDbEntity
8
1
6
DOT2
62
11
100
AcDbLine
10
2949.574270
20
459.368854
11
2955.303407
21
455.346791
0
INSERT
5
700
100
AcDbEntity
8
1
6
DOT2
62
11
100
AcDbBlockReference
2
HALF
10
2949.574270
20
459.368854
41
0.116929
42
0.116929
43
0.116929
50
144.929746
0
LINE
5
701
100
AcDbEntity
8
1
6
DOT2
62
11
100
AcDbLine
10
2955.303407
20
455.346791
11
2949.574270
21
459.368854
0
TEXT
5
702
100
AcDbEntity
8
1
62
11
100
AcDbText
10
2945.877042
20
462.001503
40
0.138583
41
0.825
1
R7
50
-35.070254
7
STANDARD
72
0
100
AcDbText
0
POINT
5
703
100
AcDbEntity
8
DEFPOINTS
6
DOT2
62
11
100
AcDbPoint
10
2949.574270
20
459.368854
0
POINT
5
704
100
AcDbEntity
8
DEFPOINTS
6
DOT2
62
11
100
AcDbPoint
10
2955.303407
20
455.346791
0
ENDBLK
5
705
100
AcDbEntity
8
1
100
AcDbBlockEnd
0
BLOCK
5
706
100
AcDbEntity
8
1
100
AcDbBlockBegin
2
*D147
70
65
10
0.000000
20
0.000000
3
*D
0
LINE
5
707
100
AcDbEntity
8
1
6
DOT2
62
11
100
AcDbLine
10
2952.989223
20
459.779009
11
2955.303407
21
455.346791
0
INSERT
5
708
100
AcDbEntity
8
1
6
DOT2
62
11
100
AcDbBlockReference
2
HALF
10
2952.989223
20
459.779009
41
0.116929
42
0.116929
43
0.116929
50
117.570303
0
LINE
5
709
100
AcDbEntity
8
1
6
DOT2
62
11
100
AcDbLine
10
2955.303407
20
455.346791
11
2952.989223
21
459.779009
0
TEXT
5
70a
100
AcDbEntity
8
1
62
11
100
AcDbText
10
2950.897610
20
463.850487
40
0.138583
41
0.825
1
R5
50
-62.429697
7
STANDARD
72
0
100
AcDbText
0
POINT
5
70b
100
AcDbEntity
8
DEFPOINTS
6
DOT2
62
11
100
AcDbPoint
10
2952.989223
20
459.779009
0
POINT
5
70c
100
AcDbEntity
8
DEFPOINTS
6
DOT2
62
11
100
AcDbPoint
10
2955.303407
20
455.346791
0
ENDBLK
5
70d
100
AcDbEntity
8
1
100
AcDbBlockEnd
0
BLOCK
5
70e
100
AcDbEntity
8
1
100
AcDbBlockBegin
2
*D148
70
65
10
0.000000
20
0.000000
3
*D
0
LINE
5
70f
100
AcDbEntity
8
1
6
DOT2
62
11
100
AcDbLine
10
2966.798375
20
460.346791
11
2978.298375
21
460.346791
0
LINE
5
710
100
AcDbEntity
8
1
6
DOT2
62
11
100
AcDbLine
10
2966.798375
20
430.596791
11
2978.298375
21
430.596791
0
LINE
5
711
100
AcDbEntity
8
1
6
DOT2
62
11
100
AcDbLine
10
2976.298375
20
460.346791
11
2976.298375
21
430.596791
0
INSERT
5
712
100
AcDbEntity
8
1
6
DOT2
62
11
100
AcDbBlockReference
2
HALF
10
2976.298375
20
430.596791
41
0.116929
42
0.116929
43
0.116929
50
270.000000
0
INSERT
5
713
100
AcDbEntity
8
1
6
DOT2
62
11
100
AcDbBlockReference
2
HALF
10
2976.298375
20
460.346791
41
0.116929
42
0.116929
43
0.116929
50
90.000000
0
TEXT
5
714
100
AcDbEntity
8
1
62
11
100
AcDbText
10
2976.268043
20
445.112568
40
0.138583
41
0.825
1
29.8
50
90.000000
7
STANDARD
72
0
100
AcDbText
0
POINT
5
715
100
AcDbEntity
8
DEFPOINTS
6
DOT2
62
11
100
AcDbPoint
10
2965.298375
20
460.346791
0
POINT
5
716
100
AcDbEntity
8
DEFPOINTS
6
DOT2
62
11
100
AcDbPoint
10
2965.298375
20
430.596791
0
POINT
5
717
100
AcDbEntity
8
DEFPOINTS
6
DOT2
62
11
100
AcDbPoint
10
2976.298375
20
430.596791
0
ENDBLK
5
718
100
AcDbEntity
8
1
100
AcDbBlockEnd
0
BLOCK
5
719
100
AcDbEntity
8
1
100
AcDbBlockBegin
2
*D149
70
65
10
0.000000
20
0.000000
3
*D
0
LINE
5
71a
100
AcDbEntity
8
1
6
DOT2
62
11
100
AcDbLine
10
2967.798375
20
462.346791
11
2981.298375
21
462.346791
0
LINE
5
71b
100
AcDbEntity
8
1
6
DOT2
62
11
100
AcDbLine
10
2967.798375
20
428.346791
11
2981.298375
21
428.346791
0
LINE
5
71c
100
AcDbEntity
8
1
6
DOT2
62
11
100
AcDbLine
10
2979.298375
20
462.346791
11
2979.298375
21
428.346791
0
INSERT
5
71d
100
AcDbEntity
8
1
6
DOT2
62
11
100
AcDbBlockReference
2
HALF
10
2979.298375
20
428.346791
41
0.116929
42
0.116929
43
0.116929
50
270.000000
0
INSERT
5
71e
100
AcDbEntity
8
1
6
DOT2
62
11
100
AcDbBlockReference
2
HALF
10
2979.298375
20
462.346791
41
0.116929
42
0.116929
43
0.116929
50
90.000000
0
TEXT
5
71f
100
AcDbEntity
8
1
62
11
100
AcDbText
10
2979.268043
20
444.413054
40
0.138583
41
0.825
1
34
50
90.000000
7
STANDARD
72
0
100
AcDbText
0
POINT
5
720
100
AcDbEntity
8
DEFPOINTS
6
DOT2
62
11
100
AcDbPoint
10
2966.298375
20
462.346791
0
POINT
5
721
100
AcDbEntity
8
DEFPOINTS
6
DOT2
62
11
100
AcDbPoint
10
2966.298375
20
428.346791
0
POINT
5
722
100
AcDbEntity
8
DEFPOINTS
6
DOT2
62
11
100
AcDbPoint
10
2979.298375
20
428.346791
0
ENDBLK
5
723
100
AcDbEntity
8
1
100
AcDbBlockEnd
0
BLOCK
5
724
100
AcDbEntity
8
1
100
AcDbBlockBegin
2
*D150
70
65
10
0.000000
20
0.000000
3
*D
0
LINE
5
725
100
AcDbEntity
8
1
6
DOT2
62
11
100
AcDbLine
10
2968.801826
20
458.204805
11
2965.139074
21
454.112204
0
LINE
5
726
100
AcDbEntity
8
1
6
DOT2
62
11
100
AcDbLine
10
2965.139074
20
454.112204
11
2958.770964
21
454.112204
0
INSERT
5
727
100
AcDbEntity
8
1
6
DOT2
62
11
100
AcDbBlockReference
2
HALF
10
2968.801826
20
458.204805
41
0.116929
42
0.116929
43
0.116929
50
48.172438
0
LINE
5
728
100
AcDbEntity
8
1
6
DOT2
62
11
100
AcDbLine
10
2966.214370
20
455.410473
11
2966.387599
21
455.410473
0
LINE
5
729
100
AcDbEntity
8
1
6
DOT2
62
11
100
AcDbLine
10
2966.300985
20
455.323858
11
2966.300985
21
455.497087
0
TEXT
5
72a
100
AcDbEntity
8
1
62
11
100
AcDbText
10
2968.139427
20
454.142536
40
0.138583
41
0.825
1
R3.8
7
STANDARD
72
0
100
AcDbText
0
POINT
5
72b
100
AcDbEntity
8
DEFPOINTS
6
DOT2
62
11
100
AcDbPoint
10
2968.801826
20
458.204805
0
POINT
5
72c
100
AcDbEntity
8
DEFPOINTS
6
DOT2
62
11
100
AcDbPoint
10
2966.300985
20
455.410473
0
ENDBLK
5
72d
100
AcDbEntity
8
1
100
AcDbBlockEnd
0
BLOCK
5
72e
100
AcDbEntity
8
1
100
AcDbBlockBegin
2
*D151
70
65
10
0.000000
20
0.000000
3
*D
0
LINE
5
72f
100
AcDbEntity
8
1
6
DOT2
62
11
100
AcDbLine
10
3018.890128
20
427.846791
11
3018.890128
21
418.346791
0
LINE
5
730
100
AcDbEntity
8
1
6
DOT2
62
11
100
AcDbLine
10
3009.383232
20
443.846791
11
3009.383232
21
418.346791
0
LINE
5
731
100
AcDbEntity
8
1
6
DOT2
62
11
100
AcDbLine
10
3018.890128
20
420.346791
11
3009.383232
21
420.346791
0
INSERT
5
732
100
AcDbEntity
8
1
6
DOT2
62
11
100
AcDbBlockReference
2
HALF
10
3018.890128
20
420.346791
41
0.116929
42
0.116929
43
0.116929
0
INSERT
5
733
100
AcDbEntity
8
1
6
DOT2
62
11
100
AcDbBlockReference
2
HALF
10
3009.383232
20
420.346791
41
0.116929
42
0.116929
43
0.116929
50
180.000000
0
TEXT
5
734
100
AcDbEntity
8
1
62
11
100
AcDbText
10
3013.027817
20
420.377123
40
0.138583
41
0.825
1
9.5
7
STANDARD
72
0
100
AcDbText
0
POINT
5
735
100
AcDbEntity
8
DEFPOINTS
6
DOT2
62
11
100
AcDbPoint
10
3018.890128
20
429.346791
0
POINT
5
736
100
AcDbEntity
8
DEFPOINTS
6
DOT2
62
11
100
AcDbPoint
10
3009.383232
20
445.346791
0
POINT
5
737
100
AcDbEntity
8
DEFPOINTS
6
DOT2
62
11
100
AcDbPoint
10
3009.383232
20
420.346791
0
ENDBLK
5
738
100
AcDbEntity
8
1
100
AcDbBlockEnd
0
BLOCK
5
739
100
AcDbEntity
8
1
100
AcDbBlockBegin
2
*D152
70
65
10
0.000000
20
0.000000
3
*D
0
LINE
5
73a
100
AcDbEntity
8
1
6
DOT2
62
11
100
AcDbLine
10
3018.890128
20
427.846791
11
3018.890128
21
421.346791
0
LINE
5
73b
100
AcDbEntity
8
1
6
DOT2
62
11
100
AcDbLine
10
3011.890128
20
431.346791
11
3011.890128
21
421.346791
0
LINE
5
73c
100
AcDbEntity
8
1
6
DOT2
62
11
100
AcDbLine
10
3018.890128
20
423.346791
11
3011.890128
21
423.346791
0
INSERT
5
73d
100
AcDbEntity
8
1
6
DOT2
62
11
100
AcDbBlockReference
2
HALF
10
3018.890128
20
423.346791
41
0.116929
42
0.116929
43
0.116929
0
INSERT
5
73e
100
AcDbEntity
8
1
6
DOT2
62
11
100
AcDbBlockReference
2
HALF
10
3011.890128
20
423.346791
41
0.116929
42
0.116929
43
0.116929
50
180.000000
0
TEXT
5
73f
100
AcDbEntity
8
1
62
11
100
AcDbText
10
3014.867040
20
423.377123
40
0.138583
41
0.825
1
7
7
STANDARD
72
0
100
AcDbText
0
POINT
5
740
100
AcDbEntity
8
DEFPOINTS
6
DOT2
62
11
100
AcDbPoint
10
3018.890128
20
429.346791
0
POINT
5
741
100
AcDbEntity
8
DEFPOINTS
6
DOT2
62
11
100
AcDbPoint
10
3011.890128
20
432.846791
0
POINT
5
742
100
AcDbEntity
8
DEFPOINTS
6
DOT2
62
11
100
AcDbPoint
10
3011.890128
20
423.346791
0
ENDBLK
5
743
100
AcDbEntity
8
1
100
AcDbBlockEnd
0
BLOCK
5
744
100
AcDbEntity
8
1
100
AcDbBlockBegin
2
*D153
70
65
10
0.000000
20
0.000000
3
*D
0
LINE
5
745
100
AcDbEntity
8
1
6
DOT2
62
11
100
AcDbLine
10
3018.890128
20
427.846791
11
3018.890128
21
424.346791
0
LINE
5
746
100
AcDbEntity
8
1
6
DOT2
62
11
100
AcDbLine
10
3017.890128
20
424.846791
11
3017.890128
21
424.346791
0
LINE
5
747
100
AcDbEntity
8
1
6
DOT2
62
11
100
AcDbLine
10
3017.890128
20
426.346791
11
3015.317047
21
426.346791
0
LINE
5
748
100
AcDbEntity
8
1
6
DOT2
62
11
100
AcDbLine
10
3018.890128
20
426.346791
11
3021.463208
21
426.346791
0
LINE
5
749
100
AcDbEntity
8
1
6
DOT2
62
11
100
AcDbLine
10
3018.890128
20
426.346791
11
3017.890128
21
426.346791
0
INSERT
5
74a
100
AcDbEntity
8
1
6
DOT2
62
11
100
AcDbBlockReference
2
HALF
10
3018.890128
20
426.346791
41
0.116929
42
0.116929
43
0.116929
50
180.000000
0
INSERT
5
74b
100
AcDbEntity
8
1
6
DOT2
62
11
100
AcDbBlockReference
2
HALF
10
3017.890128
20
426.346791
41
0.116929
42
0.116929
43
0.116929
0
TEXT
5
74c
100
AcDbEntity
8
1
62
11
100
AcDbText
10
3023.877258
20
426.377123
40
0.138583
41
0.825
1
1
7
STANDARD
72
0
100
AcDbText
0
POINT
5
74d
100
AcDbEntity
8
DEFPOINTS
6
DOT2
62
11
100
AcDbPoint
10
3018.890128
20
429.346791
0
POINT
5
74e
100
AcDbEntity
8
DEFPOINTS
6
DOT2
62
11
100
AcDbPoint
10
3017.890128
20
426.346791
0
POINT
5
74f
100
AcDbEntity
8
DEFPOINTS
6
DOT2
62
11
100
AcDbPoint
10
3017.890128
20
426.346791
0
ENDBLK
5
750
100
AcDbEntity
8
1
100
AcDbBlockEnd
0
BLOCK
5
751
100
AcDbEntity
8
1
100
AcDbBlockBegin
2
*D154
70
65
10
0.000000
20
0.000000
3
*D
0
LINE
5
752
100
AcDbEntity
8
1
6
DOT2
62
11
100
AcDbLine
10
3017.217103
20
462.086411
11
3015.656846
21
463.801054
0
LINE
5
753
100
AcDbEntity
8
1
6
DOT2
62
11
100
AcDbLine
10
3015.656846
20
463.801054
11
3009.461964
21
463.801054
0
INSERT
5
754
100
AcDbEntity
8
1
6
DOT2
62
11
100
AcDbBlockReference
2
HALF
10
3017.217103
20
462.086411
41
0.116929
42
0.116929
43
0.116929
50
312.300939
0
LINE
5
755
100
AcDbEntity
8
1
6
DOT2
62
11
100
AcDbLine
10
3017.803514
20
461.346791
11
3017.976742
21
461.346791
0
LINE
5
756
100
AcDbEntity
8
1
6
DOT2
62
11
100
AcDbLine
10
3017.890128
20
461.260176
11
3017.890128
21
461.433405
0
TEXT
5
757
100
AcDbEntity
8
1
62
11
100
AcDbText
10
3012.593411
20
463.831386
40
0.138583
41
0.825
1
R1
7
STANDARD
72
0
100
AcDbText
0
POINT
5
758
100
AcDbEntity
8
DEFPOINTS
6
DOT2
62
11
100
AcDbPoint
10
3017.217103
20
462.086411
0
POINT
5
759
100
AcDbEntity
8
DEFPOINTS
6
DOT2
62
11
100
AcDbPoint
10
3017.890128
20
461.346791
0
ENDBLK
5
75a
100
AcDbEntity
8
1
100
AcDbBlockEnd
0
BLOCK
5
75b
100
AcDbEntity
8
1
100
AcDbBlockBegin
2
*D155
70
65
10
0.000000
20
0.000000
3
*D
0
LINE
5
75c
100
AcDbEntity
8
1
6
DOT2
62
11
100
AcDbLine
10
3020.390128
20
458.846791
11
3029.890128
21
458.846791
0
LINE
5
75d
100
AcDbEntity
8
1
6
DOT2
62
11
100
AcDbLine
10
3020.390128
20
431.846791
11
3029.890128
21
431.846791
0
LINE
5
75e
100
AcDbEntity
8
1
6
DOT2
62
11
100
AcDbLine
10
3027.890128
20
458.846791
11
3027.890128
21
431.846791
0
INSERT
5
75f
100
AcDbEntity
8
1
6
DOT2
62
11
100
AcDbBlockReference
2
HALF
10
3027.890128
20
431.846791
41
0.116929
42
0.116929
43
0.116929
50
270.000000
0
INSERT
5
760
100
AcDbEntity
8
1
6
DOT2
62
11
100
AcDbBlockReference
2
HALF
10
3027.890128
20
458.846791
41
0.116929
42
0.116929
43
0.116929
50
90.000000
0
TEXT
5
761
100
AcDbEntity
8
1
62
11
100
AcDbText
10
3027.859795
20
444.882254
40
0.138583
41
0.825
1
27
50
90.000000
7
STANDARD
72
0
100
AcDbText
0
POINT
5
762
100
AcDbEntity
8
DEFPOINTS
6
DOT2
62
11
100
AcDbPoint
10
3018.890128
20
458.846791
0
POINT
5
763
100
AcDbEntity
8
DEFPOINTS
6
DOT2
62
11
100
AcDbPoint
10
3018.890128
20
431.846791
0
POINT
5
764
100
AcDbEntity
8
DEFPOINTS
6
DOT2
62
11
100
AcDbPoint
10
3027.890128
20
431.846791
0
ENDBLK
5
765
100
AcDbEntity
8
1
100
AcDbBlockEnd
0
BLOCK
5
766
100
AcDbEntity
8
1
100
AcDbBlockBegin
2
*D156
70
65
10
0.000000
20
0.000000
3
*D
0
LINE
5
767
100
AcDbEntity
8
1
6
DOT2
62
11
100
AcDbLine
10
3020.390128
20
450.838342
11
3026.890128
21
450.838342
0
LINE
5
768
100
AcDbEntity
8
1
6
DOT2
62
11
100
AcDbLine
10
3020.390128
20
439.838342
11
3026.890128
21
439.838342
0
LINE
5
769
100
AcDbEntity
8
1
6
DOT2
62
11
100
AcDbLine
10
3024.890128
20
450.838342
11
3024.890128
21
439.838342
0
INSERT
5
76a
100
AcDbEntity
8
1
6
DOT2
62
11
100
AcDbBlockReference
2
HALF
10
3024.890128
20
439.838342
41
0.116929
42
0.116929
43
0.116929
50
270.000000
0
INSERT
5
76b
100
AcDbEntity
8
1
6
DOT2
62
11
100
AcDbBlockReference
2
HALF
10
3024.890128
20
450.838342
41
0.116929
42
0.116929
43
0.116929
50
90.000000
0
TEXT
5
76c
100
AcDbEntity
8
1
62
11
100
AcDbText
10
3024.859795
20
444.967427
40
0.138583
41
0.825
1
%%c11
50
90.000000
7
STANDARD
72
0
100
AcDbText
0
POINT
5
76d
100
AcDbEntity
8
DEFPOINTS
6
DOT2
62
11
100
AcDbPoint
10
3018.890128
20
450.838342
0
POINT
5
76e
100
AcDbEntity
8
DEFPOINTS
6
DOT2
62
11
100
AcDbPoint
10
3018.890128
20
439.838342
0
POINT
5
76f
100
AcDbEntity
8
DEFPOINTS
6
DOT2
62
11
100
AcDbPoint
10
3024.890128
20
439.838342
0
ENDBLK
5
770
100
AcDbEntity
8
1
100
AcDbBlockEnd
0
ENDSEC
0
SECTION
2
ENTITIES
0
POLYLINE
5
771
100
AcDbEntity
8
1
6
CONTINUOUS
62
5
100
AcDb2dPolyline
66
1
10
0.0
20
0.0
30
0.0
70
0
0
VERTEX
5
772
100
AcDbEntity
8
1
100
AcDbVertex
100
AcDb2dVertex
62
5
10
260.500000
20
337.750000
0
VERTEX
5
773
100
AcDbEntity
8
1
100
AcDbVertex
100
AcDb2dVertex
62
5
10
260.500000
20
332.125000
0
VERTEX
5
774
100
AcDbEntity
8
1
100
AcDbVertex
100
AcDb2dVertex
62
5
10
260.000000
20
330.875000
0
VERTEX
5
775
100
AcDbEntity
8
1
100
AcDbVertex
100
AcDb2dVertex
62
5
10
259.500000
20
329.937500
0
SEQEND
5
776
100
AcDbEntity
8
1
0
POLYLINE
5
777
100
AcDbEntity
8
1
6
CONTINUOUS
62
5
100
AcDb2dPolyline
66
1
10
0.0
20
0.0
30
0.0
70
0
0
VERTEX
5
778
100
AcDbEntity
8
1
100
AcDbVertex
100
AcDb2dVertex
62
5
10
264.500000
20
330.250000
0
VERTEX
5
779
100
AcDbEntity
8
1
100
AcDbVertex
100
AcDb2dVertex
62
5
10
265.500000
20
329.625000
0
VERTEX
5
77a
100
AcDbEntity
8
1
100
AcDbVertex
100
AcDb2dVertex
62
5
10
265.500000
20
337.750000
0
VERTEX
5
77b
100
AcDbEntity
8
1
100
AcDbVertex
100
AcDb2dVertex
62
5
10
260.500000
20
337.750000
0
SEQEND
5
77c
100
AcDbEntity
8
1
0
LINE
5
77d
100
AcDbEntity
8
1
100
AcDbLine
6
CONTINUOUS
62
5
10
260.500000
20
335.250000
11
265.500000
21
335.250000
0
LINE
5
77e
100
AcDbEntity
8
1
100
AcDbLine
6
CONTINUOUS
62
5
10
263.000000
20
337.750000
11
263.000000
21
329.625000
0
LINE
5
77f
100
AcDbEntity
8
1
100
AcDbLine
6
CONTINUOUS
62
5
10
260.500000
20
332.750000
11
265.500000
21
332.750000
0
POLYLINE
5
780
100
AcDbEntity
8
1
6
CONTINUOUS
62
5
100
AcDb2dPolyline
66
1
10
0.0
20
0.0
30
0.0
70
0
0
VERTEX
5
781
100
AcDbEntity
8
1
100
AcDbVertex
100
AcDb2dVertex
62
5
10
268.250000
20
338.062500
0
VERTEX
5
782
100
AcDbEntity
8
1
100
AcDbVertex
100
AcDb2dVertex
62
5
10
269.000000
20
336.812500
0
VERTEX
5
783
100
AcDbEntity
8
1
100
AcDbVertex
100
AcDb2dVertex
62
5
10
269.750000
20
335.250000
0
VERTEX
5
784
100
AcDbEntity
8
1
100
AcDbVertex
100
AcDb2dVertex
62
5
10
270.000000
20
334.000000
0
VERTEX
5
785
100
AcDbEntity
8
1
100
AcDbVertex
100
AcDb2dVertex
62
5
10
269.750000
20
332.750000
0
VERTEX
5
786
100
AcDbEntity
8
1
100
AcDbVertex
100
AcDb2dVertex
62
5
10
269.250000
20
331.187500
0
VERTEX
5
787
100
AcDbEntity
8
1
100
AcDbVertex
100
AcDb2dVertex
62
5
10
268.250000
20
329.625000
0
SEQEND
5
788
100
AcDbEntity
8
1
0
LINE
5
789
100
AcDbEntity
8
1
100
AcDbLine
6
CONTINUOUS
62
5
10
236.000000
20
334.000000
11
238.500000
21
334.000000
0
LINE
5
78a
100
AcDbEntity
8
1
100
AcDbLine
6
CONTINUOUS
62
5
10
244.000000
20
334.000000
11
246.500000
21
334.000000
0
LINE
5
78b
100
AcDbEntity
8
1
100
AcDbLine
6
CONTINUOUS
62
5
10
220.000000
20
332.125000
11
221.250000
21
330.250000
0
POLYLINE
5
78c
100
AcDbEntity
8
1
6
CONTINUOUS
62
5
100
AcDb2dPolyline
66
1
10
0.0
20
0.0
30
0.0
70
0
0
VERTEX
5
78d
100
AcDbEntity
8
1
100
AcDbVertex
100
AcDb2dVertex
62
5
10
216.500000
20
337.125000
0
VERTEX
5
78e
100
AcDbEntity
8
1
100
AcDbVertex
100
AcDb2dVertex
62
5
10
217.250000
20
337.750000
0
VERTEX
5
78f
100
AcDbEntity
8
1
100
AcDbVertex
100
AcDb2dVertex
62
5
10
217.250000
20
330.250000
0
SEQEND
5
790
100
AcDbEntity
8
1
0
LINE
5
791
100
AcDbEntity
8
1
100
AcDbLine
6
CONTINUOUS
62
5
10
216.750000
20
330.250000
11
217.750000
21
330.250000
0
LINE
5
792
100
AcDbEntity
8
1
100
AcDbLine
6
CONTINUOUS
62
5
10
228.000000
20
337.750000
11
228.000000
21
330.250000
0
POLYLINE
5
793
100
AcDbEntity
8
1
6
CONTINUOUS
62
5
100
AcDb2dPolyline
66
1
10
0.0
20
0.0
30
0.0
70
0
0
VERTEX
5
794
100
AcDbEntity
8
1
100
AcDbVertex
100
AcDb2dVertex
62
5
10
228.000000
20
337.750000
0
VERTEX
5
795
100
AcDbEntity
8
1
100
AcDbVertex
100
AcDb2dVertex
62
5
10
229.250000
20
337.750000
0
VERTEX
5
796
100
AcDbEntity
8
1
100
AcDbVertex
100
AcDb2dVertex
62
5
10
229.750000
20
337.437500
0
VERTEX
5
797
100
AcDbEntity
8
1
100
AcDbVertex
100
AcDb2dVertex
62
5
10
230.000000
20
337.125000
0
VERTEX
5
798
100
AcDbEntity
8
1
100
AcDbVertex
100
AcDb2dVertex
62
5
10
230.250000
20
336.500000
0
VERTEX
5
799
100
AcDbEntity
8
1
100
AcDbVertex
100
AcDb2dVertex
62
5
10
230.250000
20
335.562500
0
VERTEX
5
79a
100
AcDbEntity
8
1
100
AcDbVertex
100
AcDb2dVertex
62
5
10
230.000000
20
334.937500
0
VERTEX
5
79b
100
AcDbEntity
8
1
100
AcDbVertex
100
AcDb2dVertex
62
5
10
229.750000
20
334.625000
0
VERTEX
5
79c
100
AcDbEntity
8
1
100
AcDbVertex
100
AcDb2dVertex
62
5
10
229.250000
20
334.312500
0
VERTEX
5
79d
100
AcDbEntity
8
1
100
AcDbVertex
100
AcDb2dVertex
62
5
10
228.000000
20
334.312500
0
SEQEND
5
79e
100
AcDbEntity
8
1
0
POLYLINE
5
79f
100
AcDbEntity
8
1
6
CONTINUOUS
62
5
100
AcDb2dPolyline
66
1
10
0.0
20
0.0
30
0.0
70
0
0
VERTEX
5
7a0
100
AcDbEntity
8
1
100
AcDbVertex
100
AcDb2dVertex
62
5
10
229.250000
20
334.312500
0
VERTEX
5
7a1
100
AcDbEntity
8
1
100
AcDbVertex
100
AcDb2dVertex
62
5
10
229.750000
20
334.000000
0
VERTEX
5
7a2
100
AcDbEntity
8
1
100
AcDbVertex
100
AcDb2dVertex
62
5
10
230.250000
20
333.375000
0
VERTEX
5
7a3
100
AcDbEntity
8
1
100
AcDbVertex
100
AcDb2dVertex
62
5
10
230.500000
20
332.750000
0
VERTEX
5
7a4
100
AcDbEntity
8
1
100
AcDbVertex
100
AcDb2dVertex
62
5
10
230.500000
20
331.500000
0
VERTEX
5
7a5
100
AcDbEntity
8
1
100
AcDbVertex
100
AcDb2dVertex
62
5
10
230.250000
20
330.875000
0
VERTEX
5
7a6
100
AcDbEntity
8
1
100
AcDbVertex
100
AcDb2dVertex
62
5
10
230.000000
20
330.562500
0
VERTEX
5
7a7
100
AcDbEntity
8
1
100
AcDbVertex
100
AcDb2dVertex
62
5
10
229.500000
20
330.250000
0
VERTEX
5
7a8
100
AcDbEntity
8
1
100
AcDbVertex
100
AcDb2dVertex
62
5
10
228.000000
20
330.250000
0
SEQEND
5
7a9
100
AcDbEntity
8
1
0
POLYLINE
5
7aa
100
AcDbEntity
8
1
6
CONTINUOUS
62
5
100
AcDb2dPolyline
66
1
10
0.0
20
0.0
30
0.0
70
0
0
VERTEX
5
7ab
100
AcDbEntity
8
1
100
AcDbVertex
100
AcDb2dVertex
62
5
10
234.500000
20
336.187500
0
VERTEX
5
7ac
100
AcDbEntity
8
1
100
AcDbVertex
100
AcDb2dVertex
62
5
10
234.000000
20
337.437500
0
VERTEX
5
7ad
100
AcDbEntity
8
1
100
AcDbVertex
100
AcDb2dVertex
62
5
10
233.250000
20
337.750000
0
VERTEX
5
7ae
100
AcDbEntity
8
1
100
AcDbVertex
100
AcDb2dVertex
62
5
10
232.750000
20
337.750000
0
VERTEX
5
7af
100
AcDbEntity
8
1
100
AcDbVertex
100
AcDb2dVertex
62
5
10
232.250000
20
337.437500
0
VERTEX
5
7b0
100
AcDbEntity
8
1
100
AcDbVertex
100
AcDb2dVertex
62
5
10
231.750000
20
336.500000
0
VERTEX
5
7b1
100
AcDbEntity
8
1
100
AcDbVertex
100
AcDb2dVertex
62
5
10
231.750000
20
335.562500
0
VERTEX
5
7b2
100
AcDbEntity
8
1
100
AcDbVertex
100
AcDb2dVertex
62
5
10
232.250000
20
334.625000
0
VERTEX
5
7b3
100
AcDbEntity
8
1
100
AcDbVertex
100
AcDb2dVertex
62
5
10
234.000000
20
333.375000
0
VERTEX
5
7b4
100
AcDbEntity
8
1
100
AcDbVertex
100
AcDb2dVertex
62
5
10
234.500000
20
332.437500
0
VERTEX
5
7b5
100
AcDbEntity
8
1
100
AcDbVertex
100
AcDb2dVertex
62
5
10
234.500000
20
331.500000
0
VERTEX
5
7b6
100
AcDbEntity
8
1
100
AcDbVertex
100
AcDb2dVertex
62
5
10
234.000000
20
330.562500
0
VERTEX
5
7b7
100
AcDbEntity
8
1
100
AcDbVertex
100
AcDb2dVertex
62
5
10
233.250000
20
330.250000
0
VERTEX
5
7b8
100
AcDbEntity
8
1
100
AcDbVertex
100
AcDb2dVertex
62
5
10
232.750000
20
330.250000
0
VERTEX
5
7b9
100
AcDbEntity
8
1
100
AcDbVertex
100
AcDb2dVertex
62
5
10
232.000000
20
330.875000
0
VERTEX
5
7ba
100
AcDbEntity
8
1
100
AcDbVertex
100
AcDb2dVertex
62
5
10
231.750000
20
332.125000
0
SEQEND
5
7bb
100
AcDbEntity
8
1
0
LINE
5
7bc
100
AcDbEntity
8
1
100
AcDbLine
6
CONTINUOUS
62
5
10
240.000000
20
337.750000
11
240.000000
21
330.250000
0
POLYLINE
5
7bd
100
AcDbEntity
8
1
6
CONTINUOUS
62
5
100
AcDb2dPolyline
66
1
10
0.0
20
0.0
30
0.0
70
0
0
VERTEX
5
7be
100
AcDbEntity
8
1
100
AcDbVertex
100
AcDb2dVertex
62
5
10
240.000000
20
337.750000
0
VERTEX
5
7bf
100
AcDbEntity
8
1
100
AcDbVertex
100
AcDb2dVertex
62
5
10
241.000000
20
337.750000
0
VERTEX
5
7c0
100
AcDbEntity
8
1
100
AcDbVertex
100
AcDb2dVertex
62
5
10
241.750000
20
337.437500
0
VERTEX
5
7c1
100
AcDbEntity
8
1
100
AcDbVertex
100
AcDb2dVertex
62
5
10
242.250000
20
336.812500
0
VERTEX
5
7c2
100
AcDbEntity
8
1
100
AcDbVertex
100
AcDb2dVertex
62
5
10
242.500000
20
336.187500
0
VERTEX
5
7c3
100
AcDbEntity
8
1
100
AcDbVertex
100
AcDb2dVertex
62
5
10
242.500000
20
335.250000
0
VERTEX
5
7c4
100
AcDbEntity
8
1
100
AcDbVertex
100
AcDb2dVertex
62
5
10
242.250000
20
334.625000
0
VERTEX
5
7c5
100
AcDbEntity
8
1
100
AcDbVertex
100
AcDb2dVertex
62
5
10
241.750000
20
334.000000
0
VERTEX
5
7c6
100
AcDbEntity
8
1
100
AcDbVertex
100
AcDb2dVertex
62
5
10
241.000000
20
333.687500
0
VERTEX
5
7c7
100
AcDbEntity
8
1
100
AcDbVertex
100
AcDb2dVertex
62
5
10
240.000000
20
333.687500
0
SEQEND
5
7c8
100
AcDbEntity
8
1
0
POLYLINE
5
7c9
100
AcDbEntity
8
1
6
CONTINUOUS
62
5
100
AcDb2dPolyline
66
1
10
0.0
20
0.0
30
0.0
70
0
0
VERTEX
5
7ca
100
AcDbEntity
8
1
100
AcDbVertex
100
AcDb2dVertex
62
5
10
248.500000
20
337.125000
0
VERTEX
5
7cb
100
AcDbEntity
8
1
100
AcDbVertex
100
AcDb2dVertex
62
5
10
249.250000
20
337.750000
0
VERTEX
5
7cc
100
AcDbEntity
8
1
100
AcDbVertex
100
AcDb2dVertex
62
5
10
249.250000
20
330.250000
0
SEQEND
5
7cd
100
AcDbEntity
8
1
0
LINE
5
7ce
100
AcDbEntity
8
1
100
AcDbLine
6
CONTINUOUS
62
5
10
248.750000
20
330.250000
11
249.750000
21
330.250000
0
POLYLINE
5
7cf
100
AcDbEntity
8
1
6
CONTINUOUS
62
5
100
AcDb2dPolyline
66
1
10
0.0
20
0.0
30
0.0
70
0
0
VERTEX
5
7d0
100
AcDbEntity
8
1
100
AcDbVertex
100
AcDb2dVertex
62
5
10
173.000000
20
334.937500
0
VERTEX
5
7d1
100
AcDbEntity
8
1
100
AcDbVertex
100
AcDb2dVertex
62
5
10
176.000000
20
335.562500
0
VERTEX
5
7d2
100
AcDbEntity
8
1
100
AcDbVertex
100
AcDb2dVertex
62
5
10
176.750000
20
335.875000
0
SEQEND
5
7d3
100
AcDbEntity
8
1
0
POLYLINE
5
7d4
100
AcDbEntity
8
1
6
CONTINUOUS
62
5
100
AcDb2dPolyline
66
1
10
0.0
20
0.0
30
0.0
70
0
0
VERTEX
5
7d5
100
AcDbEntity
8
1
100
AcDbVertex
100
AcDb2dVertex
62
5
10
174.500000
20
337.437500
0
VERTEX
5
7d6
100
AcDbEntity
8
1
100
AcDbVertex
100
AcDb2dVertex
62
5
10
175.500000
20
334.937500
0
VERTEX
5
7d7
100
AcDbEntity
8
1
100
AcDbVertex
100
AcDb2dVertex
62
5
10
176.750000
20
332.750000
0
VERTEX
5
7d8
100
AcDbEntity
8
1
100
AcDbVertex
100
AcDb2dVertex
62
5
10
175.000000
20
333.375000
0
VERTEX
5
7d9
100
AcDbEntity
8
1
100
AcDbVertex
100
AcDb2dVertex
62
5
10
173.750000
20
333.375000
0
VERTEX
5
7da
100
AcDbEntity
8
1
100
AcDbVertex
100
AcDb2dVertex
62
5
10
173.000000
20
332.750000
0
VERTEX
5
7db
100
AcDbEntity
8
1
100
AcDbVertex
100
AcDb2dVertex
62
5
10
172.750000
20
332.125000
0
VERTEX
5
7dc
100
AcDbEntity
8
1
100
AcDbVertex
100
AcDb2dVertex
62
5
10
172.750000
20
331.812500
0
VERTEX
5
7dd
100
AcDbEntity
8
1
100
AcDbVertex
100
AcDb2dVertex
62
5
10
173.250000
20
331.187500
0
VERTEX
5
7de
100
AcDbEntity
8
1
100
AcDbVertex
100
AcDb2dVertex
62
5
10
174.000000
20
330.875000
0
VERTEX
5
7df
100
AcDbEntity
8
1
100
AcDbVertex
100
AcDb2dVertex
62
5
10
175.750000
20
330.562500
0
SEQEND
5
7e0
100
AcDbEntity
8
1
0
POLYLINE
5
7e1
100
AcDbEntity
8
1
6
CONTINUOUS
62
5
100
AcDb2dPolyline
66
1
10
0.0
20
0.0
30
0.0
70
0
0
VERTEX
5
7e2
100
AcDbEntity
8
1
100
AcDbVertex
100
AcDb2dVertex
62
5
10
181.500000
20
336.500000
0
VERTEX
5
7e3
100
AcDbEntity
8
1
100
AcDbVertex
100
AcDb2dVertex
62
5
10
183.250000
20
337.125000
0
VERTEX
5
7e4
100
AcDbEntity
8
1
100
AcDbVertex
100
AcDb2dVertex
62
5
10
183.750000
20
336.812500
0
VERTEX
5
7e5
100
AcDbEntity
8
1
100
AcDbVertex
100
AcDb2dVertex
62
5
10
181.250000
20
332.125000
0
VERTEX
5
7e6
100
AcDbEntity
8
1
100
AcDbVertex
100
AcDb2dVertex
62
5
10
180.750000
20
331.500000
0
VERTEX
5
7e7
100
AcDbEntity
8
1
100
AcDbVertex
100
AcDb2dVertex
62
5
10
180.250000
20
331.500000
0
VERTEX
5
7e8
100
AcDbEntity
8
1
100
AcDbVertex
100
AcDb2dVertex
62
5
10
180.000000
20
331.812500
0
VERTEX
5
7e9
100
AcDbEntity
8
1
100
AcDbVertex
100
AcDb2dVertex
62
5
10
180.000000
20
332.437500
0
VERTEX
5
7ea
100
AcDbEntity
8
1
100
AcDbVertex
100
AcDb2dVertex
62
5
10
180.250000
20
333.375000
0
VERTEX
5
7eb
100
AcDbEntity
8
1
100
AcDbVertex
100
AcDb2dVertex
62
5
10
181.000000
20
334.000000
0
VERTEX
5
7ec
100
AcDbEntity
8
1
100
AcDbVertex
100
AcDb2dVertex
62
5
10
182.000000
20
334.312500
0
VERTEX
5
7ed
100
AcDbEntity
8
1
100
AcDbVertex
100
AcDb2dVertex
62
5
10
183.250000
20
334.000000
0
VERTEX
5
7ee
100
AcDbEntity
8
1
100
AcDbVertex
100
AcDb2dVertex
62
5
10
185.000000
20
332.750000
0
VERTEX
5
7ef
100
AcDbEntity
8
1
100
AcDbVertex
100
AcDb2dVertex
62
5
10
186.000000
20
331.812500
0
SEQEND
5
7f0
100
AcDbEntity
8
1
0
POLYLINE
5
7f1
100
AcDbEntity
8
1
6
CONTINUOUS
62
5
100
AcDb2dPolyline
66
1
10
0.0
20
0.0
30
0.0
70
0
0
VERTEX
5
7f2
100
AcDbEntity
8
1
100
AcDbVertex
100
AcDb2dVertex
62
5
10
185.000000
20
334.937500
0
VERTEX
5
7f3
100
AcDbEntity
8
1
100
AcDbVertex
100
AcDb2dVertex
62
5
10
184.750000
20
333.687500
0
VERTEX
5
7f4
100
AcDbEntity
8
1
100
AcDbVertex
100
AcDb2dVertex
62
5
10
184.000000
20
331.812500
0
VERTEX
5
7f5
100
AcDbEntity
8
1
100
AcDbVertex
100
AcDb2dVertex
62
5
10
183.250000
20
330.875000
0
VERTEX
5
7f6
100
AcDbEntity
8
1
100
AcDbVertex
100
AcDb2dVertex
62
5
10
182.750000
20
330.562500
0
SEQEND
5
7f7
100
AcDbEntity
8
1
0
LINE
5
7f8
100
AcDbEntity
8
1
100
AcDbLine
6
CONTINUOUS
62
5
10
191.000000
20
334.937500
11
191.000000
21
329.937500
0
POLYLINE
5
7f9
100
AcDbEntity
8
1
6
CONTINUOUS
62
5
100
AcDb2dPolyline
66
1
10
0.0
20
0.0
30
0.0
70
0
0
VERTEX
5
7fa
100
AcDbEntity
8
1
100
AcDbVertex
100
AcDb2dVertex
62
5
10
187.500000
20
334.312500
0
VERTEX
5
7fb
100
AcDbEntity
8
1
100
AcDbVertex
100
AcDb2dVertex
62
5
10
191.000000
20
338.062500
0
VERTEX
5
7fc
100
AcDbEntity
8
1
100
AcDbVertex
100
AcDb2dVertex
62
5
10
194.250000
20
334.625000
0
SEQEND
5
7fd
100
AcDbEntity
8
1
0
LINE
5
7fe
100
AcDbEntity
8
1
100
AcDbLine
6
CONTINUOUS
62
5
10
189.000000
20
334.937500
11
192.750000
21
334.937500
0
LINE
5
7ff
100
AcDbEntity
8
1
100
AcDbLine
6
CONTINUOUS
62
5
10
188.000000
20
333.062500
11
193.750000
21
333.062500
0
LINE
5
800
100
AcDbEntity
8
1
100
AcDbLine
6
CONTINUOUS
62
5
10
187.750000
20
329.937500
11
194.250000
21
329.937500
0
LINE
5
801
100
AcDbEntity
8
1
100
AcDbLine
6
CONTINUOUS
62
5
10
188.750000
20
332.125000
11
189.750000
21
330.875000
0
LINE
5
802
100
AcDbEntity
8
1
100
AcDbLine
6
CONTINUOUS
62
5
10
193.000000
20
332.125000
11
192.250000
21
330.875000
0
POLYLINE
5
803
100
AcDbEntity
8
1
6
CONTINUOUS
62
5
100
AcDb2dPolyline
66
1
10
0.0
20
0.0
30
0.0
70
1
0
VERTEX
5
804
100
AcDbEntity
8
1
100
AcDbVertex
100
AcDb2dVertex
62
5
10
197.000000
20
338.062500
0
VERTEX
5
805
100
AcDbEntity
8
1
100
AcDbVertex
100
AcDb2dVertex
62
5
10
197.000000
20
333.375000
0
VERTEX
5
806
100
AcDbEntity
8
1
100
AcDbVertex
100
AcDb2dVertex
62
5
10
201.000000
20
333.375000
0
VERTEX
5
807
100
AcDbEntity
8
1
100
AcDbVertex
100
AcDb2dVertex
62
5
10
201.000000
20
338.062500
0
VERTEX
5
808
100
AcDbEntity
8
1
100
AcDbVertex
100
AcDb2dVertex
62
5
10
197.000000
20
338.062500
0
SEQEND
5
809
100
AcDbEntity
8
1
0
LINE
5
80a
100
AcDbEntity
8
1
100
AcDbLine
6
CONTINUOUS
62
5
10
197.000000
20
336.500000
11
201.000000
21
336.500000
0
LINE
5
80b
100
AcDbEntity
8
1
100
AcDbLine
6
CONTINUOUS
62
5
10
197.000000
20
334.937500
11
201.000000
21
334.937500
0
LINE
5
80c
100
AcDbEntity
8
1
100
AcDbLine
6
CONTINUOUS
62
5
10
195.750000
20
332.125000
11
202.250000
21
332.125000
0
POLYLINE
5
80d
100
AcDbEntity
8
1
6
CONTINUOUS
62
5
100
AcDb2dPolyline
66
1
10
0.0
20
0.0
30
0.0
70
0
0
VERTEX
5
80e
100
AcDbEntity
8
1
100
AcDbVertex
100
AcDb2dVertex
62
5
10
198.000000
20
331.500000
0
VERTEX
5
80f
100
AcDbEntity
8
1
100
AcDbVertex
100
AcDb2dVertex
62
5
10
197.250000
20
330.562500
0
VERTEX
5
810
100
AcDbEntity
8
1
100
AcDbVertex
100
AcDb2dVertex
62
5
10
196.250000
20
329.937500
0
SEQEND
5
811
100
AcDbEntity
8
1
0
POLYLINE
5
812
100
AcDbEntity
8
1
6
CONTINUOUS
62
5
100
AcDb2dPolyline
66
1
10
0.0
20
0.0
30
0.0
70
0
0
VERTEX
5
813
100
AcDbEntity
8
1
100
AcDbVertex
100
AcDb2dVertex
62
5
10
199.750000
20
331.500000
0
VERTEX
5
814
100
AcDbEntity
8
1
100
AcDbVertex
100
AcDb2dVertex
62
5
10
200.750000
20
330.875000
0
VERTEX
5
815
100
AcDbEntity
8
1
100
AcDbVertex
100
AcDb2dVertex
62
5
10
201.750000
20
329.937500
0
SEQEND
5
816
100
AcDbEntity
8
1
0
POLYLINE
5
817
100
AcDbEntity
8
1
6
CONTINUOUS
62
5
100
AcDb2dPolyline
66
1
10
0.0
20
0.0
30
0.0
70
1
0
VERTEX
5
818
100
AcDbEntity
8
1
100
AcDbVertex
100
AcDb2dVertex
62
5
10
205.000000
20
337.750000
0
VERTEX
5
819
100
AcDbEntity
8
1
100
AcDbVertex
100
AcDb2dVertex
62
5
10
205.500000
20
337.750000
0
VERTEX
5
81a
100
AcDbEntity
8
1
100
AcDbVertex
100
AcDb2dVertex
62
5
10
206.000000
20
337.437500
0
VERTEX
5
81b
100
AcDbEntity
8
1
100
AcDbVertex
100
AcDb2dVertex
62
5
10
206.250000
20
336.812500
0
VERTEX
5
81c
100
AcDbEntity
8
1
100
AcDbVertex
100
AcDb2dVertex
62
5
10
206.250000
20
335.562500
0
VERTEX
5
81d
100
AcDbEntity
8
1
100
AcDbVertex
100
AcDb2dVertex
62
5
10
206.000000
20
334.937500
0
VERTEX
5
81e
100
AcDbEntity
8
1
100
AcDbVertex
100
AcDb2dVertex
62
5
10
204.500000
20
333.687500
0
VERTEX
5
81f
100
AcDbEntity
8
1
100
AcDbVertex
100
AcDb2dVertex
62
5
10
204.000000
20
332.750000
0
VERTEX
5
820
100
AcDbEntity
8
1
100
AcDbVertex
100
AcDb2dVertex
62
5
10
204.000000
20
331.500000
0
VERTEX
5
821
100
AcDbEntity
8
1
100
AcDbVertex
100
AcDb2dVertex
62
5
10
204.250000
20
330.875000
0
VERTEX
5
822
100
AcDbEntity
8
1
100
AcDbVertex
100
AcDb2dVertex
62
5
10
204.500000
20
330.562500
0
VERTEX
5
823
100
AcDbEntity
8
1
100
AcDbVertex
100
AcDb2dVertex
62
5
10
205.000000
20
330.250000
0
VERTEX
5
824
100
AcDbEntity
8
1
100
AcDbVertex
100
AcDb2dVertex
62
5
10
205.500000
20
330.250000
0
VERTEX
5
825
100
AcDbEntity
8
1
100
AcDbVertex
100
AcDb2dVertex
62
5
10
206.000000
20
330.562500
0
VERTEX
5
826
100
AcDbEntity
8
1
100
AcDbVertex
100
AcDb2dVertex
62
5
10
206.250000
20
330.875000
0
VERTEX
5
827
100
AcDbEntity
8
1
100
AcDbVertex
100
AcDb2dVertex
62
5
10
206.500000
20
331.500000
0
VERTEX
5
828
100
AcDbEntity
8
1
100
AcDbVertex
100
AcDb2dVertex
62
5
10
206.500000
20
332.750000
0
VERTEX
5
829
100
AcDbEntity
8
1
100
AcDbVertex
100
AcDb2dVertex
62
5
10
206.000000
20
333.687500
0
VERTEX
5
82a
100
AcDbEntity
8
1
100
AcDbVertex
100
AcDb2dVertex
62
5
10
204.500000
20
334.937500
0
VERTEX
5
82b
100
AcDbEntity
8
1
100
AcDbVertex
100
AcDb2dVertex
62
5
10
204.250000
20
335.562500
0
VERTEX
5
82c
100
AcDbEntity
8
1
100
AcDbVertex
100
AcDb2dVertex
62
5
10
204.250000
20
336.812500
0
VERTEX
5
82d
100
AcDbEntity
8
1
100
AcDbVertex
100
AcDb2dVertex
62
5
10
204.500000
20
337.437500
0
VERTEX
5
82e
100
AcDbEntity
8
1
100
AcDbVertex
100
AcDb2dVertex
62
5
10
205.000000
20
337.750000
0
SEQEND
5
82f
100
AcDbEntity
8
1
0
POLYLINE
5
830
100
AcDbEntity
8
1
6
CONTINUOUS
62
5
100
AcDb2dPolyline
66
1
10
0.0
20
0.0
30
0.0
70
0
0
VERTEX
5
831
100
AcDbEntity
8
1
100
AcDbVertex
100
AcDb2dVertex
62
5
10
210.000000
20
337.750000
0
VERTEX
5
832
100
AcDbEntity
8
1
100
AcDbVertex
100
AcDb2dVertex
62
5
10
209.250000
20
337.750000
0
VERTEX
5
833
100
AcDbEntity
8
1
100
AcDbVertex
100
AcDb2dVertex
62
5
10
208.500000
20
337.437500
0
VERTEX
5
834
100
AcDbEntity
8
1
100
AcDbVertex
100
AcDb2dVertex
62
5
10
208.000000
20
336.187500
0
VERTEX
5
835
100
AcDbEntity
8
1
100
AcDbVertex
100
AcDb2dVertex
62
5
10
208.000000
20
331.812500
0
VERTEX
5
836
100
AcDbEntity
8
1
100
AcDbVertex
100
AcDb2dVertex
62
5
10
208.250000
20
330.875000
0
VERTEX
5
837
100
AcDbEntity
8
1
100
AcDbVertex
100
AcDb2dVertex
62
5
10
208.500000
20
330.562500
0
VERTEX
5
838
100
AcDbEntity
8
1
100
AcDbVertex
100
AcDb2dVertex
62
5
10
209.000000
20
330.250000
0
VERTEX
5
839
100
AcDbEntity
8
1
100
AcDbVertex
100
AcDb2dVertex
62
5
10
209.500000
20
330.250000
0
VERTEX
5
83a
100
AcDbEntity
8
1
100
AcDbVertex
100
AcDb2dVertex
62
5
10
210.000000
20
330.562500
0
VERTEX
5
83b
100
AcDbEntity
8
1
100
AcDbVertex
100
AcDb2dVertex
62
5
10
210.250000
20
330.875000
0
VERTEX
5
83c
100
AcDbEntity
8
1
100
AcDbVertex
100
AcDb2dVertex
62
5
10
210.500000
20
331.812500
0
VERTEX
5
83d
100
AcDbEntity
8
1
100
AcDbVertex
100
AcDb2dVertex
62
5
10
210.500000
20
333.687500
0
VERTEX
5
83e
100
AcDbEntity
8
1
100
AcDbVertex
100
AcDb2dVertex
62
5
10
210.250000
20
334.312500
0
VERTEX
5
83f
100
AcDbEntity
8
1
100
AcDbVertex
100
AcDb2dVertex
62
5
10
209.750000
20
334.625000
0
VERTEX
5
840
100
AcDbEntity
8
1
100
AcDbVertex
100
AcDb2dVertex
62
5
10
208.750000
20
334.625000
0
VERTEX
5
841
100
AcDbEntity
8
1
100
AcDbVertex
100
AcDb2dVertex
62
5
10
208.000000
20
334.312500
0
SEQEND
5
842
100
AcDbEntity
8
1
0
LINE
5
843
100
AcDbEntity
8
1
100
AcDbLine
6
CONTINUOUS
62
5
10
212.000000
20
337.750000
11
214.250000
21
337.750000
0
POLYLINE
5
844
100
AcDbEntity
8
1
6
CONTINUOUS
62
5
100
AcDb2dPolyline
66
1
10
0.0
20
0.0
30
0.0
70
0
0
VERTEX
5
845
100
AcDbEntity
8
1
100
AcDbVertex
100
AcDb2dVertex
62
5
10
212.000000
20
337.750000
0
VERTEX
5
846
100
AcDbEntity
8
1
100
AcDbVertex
100
AcDb2dVertex
62
5
10
212.000000
20
334.000000
0
VERTEX
5
847
100
AcDbEntity
8
1
100
AcDbVertex
100
AcDb2dVertex
62
5
10
212.500000
20
334.625000
0
VERTEX
5
848
100
AcDbEntity
8
1
100
AcDbVertex
100
AcDb2dVertex
62
5
10
213.000000
20
334.937500
0
VERTEX
5
849
100
AcDbEntity
8
1
100
AcDbVertex
100
AcDb2dVertex
62
5
10
213.750000
20
334.937500
0
VERTEX
5
84a
100
AcDbEntity
8
1
100
AcDbVertex
100
AcDb2dVertex
62
5
10
214.250000
20
334.625000
0
VERTEX
5
84b
100
AcDbEntity
8
1
100
AcDbVertex
100
AcDb2dVertex
62
5
10
214.500000
20
333.687500
0
VERTEX
5
84c
100
AcDbEntity
8
1
100
AcDbVertex
100
AcDb2dVertex
62
5
10
214.500000
20
331.812500
0
VERTEX
5
84d
100
AcDbEntity
8
1
100
AcDbVertex
100
AcDb2dVertex
62
5
10
214.000000
20
330.875000
0
VERTEX
5
84e
100
AcDbEntity
8
1
100
AcDbVertex
100
AcDb2dVertex
62
5
10
213.250000
20
330.250000
0
VERTEX
5
84f
100
AcDbEntity
8
1
100
AcDbVertex
100
AcDb2dVertex
62
5
10
212.000000
20
330.250000
0
SEQEND
5
850
100
AcDbEntity
8
1
0
POLYLINE
5
851
100
AcDbEntity
8
1
6
DOT2
62
5
100
AcDb2dPolyline
66
1
10
0.0
20
0.0
30
0.0
70
0
0
VERTEX
5
852
100
AcDbEntity
8
1
100
AcDbVertex
100
AcDb2dVertex
62
5
10
173.750000
20
281.249957
0
VERTEX
5
853
100
AcDbEntity
8
1
100
AcDbVertex
100
AcDb2dVertex
62
5
10
170.937500
20
275.624957
0
VERTEX
5
854
100
AcDbEntity
8
1
100
AcDbVertex
100
AcDb2dVertex
62
5
10
174.687500
20
275.624957
0
SEQEND
5
855
100
AcDbEntity
8
1
0
LINE
5
856
100
AcDbEntity
8
1
100
AcDbLine
6
DOT2
62
5
10
173.750000
20
281.249957
11
173.750000
21
273.749957
0
LINE
5
857
100
AcDbEntity
8
1
100
AcDbLine
6
DOT2
62
5
10
173.125000
20
273.749957
11
174.375000
21
273.749957
0
LINE
5
858
100
AcDbEntity
8
1
100
AcDbLine
6
CONTINUOUS
62
5
10
251.750000
20
337.437500
11
258.000000
21
337.437500
0
POLYLINE
5
859
100
AcDbEntity
8
1
6
CONTINUOUS
62
5
100
AcDb2dPolyline
66
1
10
0.0
20
0.0
30
0.0
70
1
0
VERTEX
5
85a
100
AcDbEntity
8
1
100
AcDbVertex
100
AcDb2dVertex
62
5
10
252.500000
20
336.500000
0
VERTEX
5
85b
100
AcDbEntity
8
1
100
AcDbVertex
100
AcDb2dVertex
62
5
10
257.000000
20
336.500000
0
VERTEX
5
85c
100
AcDbEntity
8
1
100
AcDbVertex
100
AcDb2dVertex
62
5
10
257.000000
20
334.000000
0
VERTEX
5
85d
100
AcDbEntity
8
1
100
AcDbVertex
100
AcDb2dVertex
62
5
10
252.500000
20
334.000000
0
VERTEX
5
85e
100
AcDbEntity
8
1
100
AcDbVertex
100
AcDb2dVertex
62
5
10
252.500000
20
336.500000
0
SEQEND
5
85f
100
AcDbEntity
8
1
0
LINE
5
860
100
AcDbEntity
8
1
100
AcDbLine
6
CONTINUOUS
62
5
10
252.500000
20
335.250000
11
257.000000
21
335.250000
0
LINE
5
861
100
AcDbEntity
8
1
100
AcDbLine
6
CONTINUOUS
62
5
10
254.750000
20
334.000000
11
254.750000
21
338.375000
0
LINE
5
862
100
AcDbEntity
8
1
100
AcDbLine
6
CONTINUOUS
62
5
10
251.500000
20
332.437500
11
258.500000
21
332.437500
0
POLYLINE
5
863
100
AcDbEntity
8
1
6
CONTINUOUS
62
5
100
AcDb2dPolyline
66
1
10
0.0
20
0.0
30
0.0
70
0
0
VERTEX
5
864
100
AcDbEntity
8
1
100
AcDbVertex
100
AcDb2dVertex
62
5
10
256.500000
20
334.000000
0
VERTEX
5
865
100
AcDbEntity
8
1
100
AcDbVertex
100
AcDb2dVertex
62
5
10
256.500000
20
330.250000
0
VERTEX
5
866
100
AcDbEntity
8
1
100
AcDbVertex
100
AcDb2dVertex
62
5
10
256.000000
20
329.625000
0
VERTEX
5
867
100
AcDbEntity
8
1
100
AcDbVertex
100
AcDb2dVertex
62
5
10
255.500000
20
329.625000
0
SEQEND
5
868
100
AcDbEntity
8
1
0
LINE
5
869
100
AcDbEntity
8
1
100
AcDbLine
6
CONTINUOUS
62
5
10
253.250000
20
331.500000
11
254.250000
21
330.250000
0
LINE
5
86a
100
AcDbEntity
8
1
100
AcDbLine
6
CONTINUOUS
62
5
10
195.500000
20
239.500000
11
197.000000
21
239.500000
0
LINE
5
86b
100
AcDbEntity
8
1
100
AcDbLine
6
CONTINUOUS
62
5
10
195.359155
20
237.500000
11
196.894737
21
237.500000
0
ARC
5
86c
100
AcDbEntity
8
1
100
AcDbCircle
6
CONTINUOUS
62
5
10
175.000000
20
206.500000
40
3.254580
100
AcDbArc
50
-17.894141
51
17.894141
0
LINE
5
86d
100
AcDbEntity
8
1
100
AcDbLine
6
CONTINUOUS
62
5
10
178.097142
20
205.500000
11
179.387482
21
205.500000
0
LINE
5
86e
100
AcDbEntity
8
1
100
AcDbLine
6
CONTINUOUS
62
5
10
179.387482
20
207.500000
11
178.097142
21
207.500000
0
CIRCLE
5
86f
100
AcDbEntity
8
1
100
AcDbCircle
6
CONTINUOUS
62
5
10
185.000000
20
186.500000
40
2.000000
0
CIRCLE
5
870
100
AcDbEntity
8
1
100
AcDbCircle
6
CONTINUOUS
62
5
10
185.000000
20
186.500000
40
1.750000
0
LINE
5
871
100
AcDbEntity
8
1
100
AcDbLine
6
CONTINUOUS
62
5
10
194.538295
20
241.789147
11
194.538295
21
191.500000
0
POLYLINE
5
872
100
AcDbEntity
8
1
6
CONTINUOUS
62
5
100
AcDb2dPolyline
66
1
10
0.0
20
0.0
30
0.0
70
0
0
VERTEX
5
873
100
AcDbEntity
8
1
100
AcDbVertex
100
AcDb2dVertex
62
5
10
193.203896
20
240.803025
0
VERTEX
5
874
100
AcDbEntity
8
1
100
AcDbVertex
100
AcDb2dVertex
62
5
10
193.217735
20
191.500000
0
VERTEX
5
875
100
AcDbEntity
8
1
100
AcDbVertex
100
AcDb2dVertex
62
5
10
195.359155
20
191.500000
0
SEQEND
5
876
100
AcDbEntity
8
1
0
POLYLINE
5
877
100
AcDbEntity
8
1
6
CONTINUOUS
62
5
100
AcDb2dPolyline
66
1
10
0.0
20
0.0
30
0.0
70
0
0
VERTEX
5
878
100
AcDbEntity
8
1
100
AcDbVertex
100
AcDb2dVertex
62
5
10
164.750000
20
337.125000
0
VERTEX
5
879
100
AcDbEntity
8
1
100
AcDbVertex
100
AcDb2dVertex
62
5
10
164.750000
20
335.875000
0
VERTEX
5
87a
100
AcDbEntity
8
1
100
AcDbVertex
100
AcDb2dVertex
62
5
10
164.500000
20
334.625000
0
VERTEX
5
87b
100
AcDbEntity
8
1
100
AcDbVertex
100
AcDb2dVertex
62
5
10
164.500000
20
331.812500
0
VERTEX
5
87c
100
AcDbEntity
8
1
100
AcDbVertex
100
AcDb2dVertex
62
5
10
164.750000
20
330.562500
0
SEQEND
5
87d
100
AcDbEntity
8
1
0
LINE
5
87e
100
AcDbEntity
8
1
100
AcDbLine
6
CONTINUOUS
62
5
10
166.000000
20
335.250000
11
169.500000
21
335.250000
0
POLYLINE
5
87f
100
AcDbEntity
8
1
6
CONTINUOUS
62
5
100
AcDb2dPolyline
66
1
10
0.0
20
0.0
30
0.0
70
0
0
VERTEX
5
880
100
AcDbEntity
8
1
100
AcDbVertex
100
AcDb2dVertex
62
5
10
168.250000
20
337.125000
0
VERTEX
5
881
100
AcDbEntity
8
1
100
AcDbVertex
100
AcDb2dVertex
62
5
10
168.250000
20
335.875000
0
VERTEX
5
882
100
AcDbEntity
8
1
100
AcDbVertex
100
AcDb2dVertex
62
5
10
168.250000
20
332.125000
0
VERTEX
5
883
100
AcDbEntity
8
1
100
AcDbVertex
100
AcDb2dVertex
62
5
10
168.000000
20
330.875000
0
VERTEX
5
884
100
AcDbEntity
8
1
100
AcDbVertex
100
AcDb2dVertex
62
5
10
167.500000
20
330.562500
0
VERTEX
5
885
100
AcDbEntity
8
1
100
AcDbVertex
100
AcDb2dVertex
62
5
10
166.750000
20
330.562500
0
VERTEX
5
886
100
AcDbEntity
8
1
100
AcDbVertex
100
AcDb2dVertex
62
5
10
166.250000
20
330.875000
0
VERTEX
5
887
100
AcDbEntity
8
1
100
AcDbVertex
100
AcDb2dVertex
62
5
10
166.250000
20
331.812500
0
VERTEX
5
888
100
AcDbEntity
8
1
100
AcDbVertex
100
AcDb2dVertex
62
5
10
167.000000
20
332.437500
0
VERTEX
5
889
100
AcDbEntity
8
1
100
AcDbVertex
100
AcDb2dVertex
62
5
10
167.750000
20
332.437500
0
VERTEX
5
88a
100
AcDbEntity
8
1
100
AcDbVertex
100
AcDb2dVertex
62
5
10
168.250000
20
332.125000
0
VERTEX
5
88b
100
AcDbEntity
8
1
100
AcDbVertex
100
AcDb2dVertex
62
5
10
168.750000
20
331.812500
0
VERTEX
5
88c
100
AcDbEntity
8
1
100
AcDbVertex
100
AcDb2dVertex
62
5
10
169.500000
20
331.187500
0
SEQEND
5
88d
100
AcDbEntity
8
1
0
LINE
5
88e
100
AcDbEntity
8
1
100
AcDbLine
6
CONTINUOUS
62
5
10
131.750000
20
337.750000
11
132.750000
21
336.812500
0
POLYLINE
5
88f
100
AcDbEntity
8
1
6
CONTINUOUS
62
5
100
AcDb2dPolyline
66
1
10
0.0
20
0.0
30
0.0
70
0
0
VERTEX
5
890
100
AcDbEntity
8
1
100
AcDbVertex
100
AcDb2dVertex
62
5
10
131.250000
20
334.000000
0
VERTEX
5
891
100
AcDbEntity
8
1
100
AcDbVertex
100
AcDb2dVertex
62
5
10
132.500000
20
334.000000
0
VERTEX
5
892
100
AcDbEntity
8
1
100
AcDbVertex
100
AcDb2dVertex
62
5
10
132.500000
20
330.875000
0
VERTEX
5
893
100
AcDbEntity
8
1
100
AcDbVertex
100
AcDb2dVertex
62
5
10
131.250000
20
329.937500
0
SEQEND
5
894
100
AcDbEntity
8
1
0
POLYLINE
5
895
100
AcDbEntity
8
1
6
CONTINUOUS
62
5
100
AcDb2dPolyline
66
1
10
0.0
20
0.0
30
0.0
70
0
0
VERTEX
5
896
100
AcDbEntity
8
1
100
AcDbVertex
100
AcDb2dVertex
62
5
10
132.500000
20
330.875000
0
VERTEX
5
897
100
AcDbEntity
8
1
100
AcDbVertex
100
AcDb2dVertex
62
5
10
133.500000
20
330.250000
0
VERTEX
5
898
100
AcDbEntity
8
1
100
AcDbVertex
100
AcDb2dVertex
62
5
10
138.250000
20
329.625000
0
SEQEND
5
899
100
AcDbEntity
8
1
0
LINE
5
89a
100
AcDbEntity
8
1
100
AcDbLine
6
CONTINUOUS
62
5
10
133.500000
20
337.125000
11
138.250000
21
337.125000
0
LINE
5
89b
100
AcDbEntity
8
1
100
AcDbLine
6
CONTINUOUS
62
5
10
136.000000
20
338.375000
11
136.000000
21
330.875000
0
POLYLINE
5
89c
100
AcDbEntity
8
1
6
CONTINUOUS
62
5
100
AcDb2dPolyline
66
1
10
0.0
20
0.0
30
0.0
70
1
0
VERTEX
5
89d
100
AcDbEntity
8
1
100
AcDbVertex
100
AcDb2dVertex
62
5
10
134.000000
20
335.875000
0
VERTEX
5
89e
100
AcDbEntity
8
1
100
AcDbVertex
100
AcDb2dVertex
62
5
10
134.000000
20
333.375000
0
VERTEX
5
89f
100
AcDbEntity
8
1
100
AcDbVertex
100
AcDb2dVertex
62
5
10
137.750000
20
333.375000
0
VERTEX
5
8a0
100
AcDbEntity
8
1
100
AcDbVertex
100
AcDb2dVertex
62
5
10
137.750000
20
335.875000
0
VERTEX
5
8a1
100
AcDbEntity
8
1
100
AcDbVertex
100
AcDb2dVertex
62
5
10
134.000000
20
335.875000
0
SEQEND
5
8a2
100
AcDbEntity
8
1
0
LINE
5
8a3
100
AcDbEntity
8
1
100
AcDbLine
6
CONTINUOUS
62
5
10
134.000000
20
334.625000
11
137.750000
21
334.625000
0
LINE
5
8a4
100
AcDbEntity
8
1
100
AcDbLine
6
CONTINUOUS
62
5
10
133.000000
20
332.125000
11
138.500000
21
332.125000
0
POLYLINE
5
8a5
100
AcDbEntity
8
1
6
CONTINUOUS
62
5
100
AcDb2dPolyline
66
1
10
0.0
20
0.0
30
0.0
70
0
0
VERTEX
5
8a6
100
AcDbEntity
8
1
100
AcDbVertex
100
AcDb2dVertex
62
5
10
140.500000
20
337.750000
0
VERTEX
5
8a7
100
AcDbEntity
8
1
100
AcDbVertex
100
AcDb2dVertex
62
5
10
140.500000
20
332.125000
0
VERTEX
5
8a8
100
AcDbEntity
8
1
100
AcDbVertex
100
AcDb2dVertex
62
5
10
140.000000
20
330.875000
0
VERTEX
5
8a9
100
AcDbEntity
8
1
100
AcDbVertex
100
AcDb2dVertex
62
5
10
139.500000
20
329.937500
0
SEQEND
5
8aa
100
AcDbEntity
8
1
0
POLYLINE
5
8ab
100
AcDbEntity
8
1
6
CONTINUOUS
62
5
100
AcDb2dPolyline
66
1
10
0.0
20
0.0
30
0.0
70
0
0
VERTEX
5
8ac
100
AcDbEntity
8
1
100
AcDbVertex
100
AcDb2dVertex
62
5
10
144.500000
20
330.250000
0
VERTEX
5
8ad
100
AcDbEntity
8
1
100
AcDbVertex
100
AcDb2dVertex
62
5
10
145.500000
20
329.625000
0
VERTEX
5
8ae
100
AcDbEntity
8
1
100
AcDbVertex
100
AcDb2dVertex
62
5
10
145.500000
20
337.750000
0
VERTEX
5
8af
100
AcDbEntity
8
1
100
AcDbVertex
100
AcDb2dVertex
62
5
10
140.500000
20
337.750000
0
SEQEND
5
8b0
100
AcDbEntity
8
1
0
LINE
5
8b1
100
AcDbEntity
8
1
100
AcDbLine
6
CONTINUOUS
62
5
10
140.500000
20
335.250000
11
145.500000
21
335.250000
0
LINE
5
8b2
100
AcDbEntity
8
1
100
AcDbLine
6
CONTINUOUS
62
5
10
143.000000
20
337.750000
11
143.000000
21
329.625000
0
LINE
5
8b3
100
AcDbEntity
8
1
100
AcDbLine
6
CONTINUOUS
62
5
10
140.500000
20
332.750000
11
145.500000
21
332.750000
0
POLYLINE
5
8b4
100
AcDbEntity
8
1
6
CONTINUOUS
62
5
100
AcDb2dPolyline
66
1
10
0.0
20
0.0
30
0.0
70
0
0
VERTEX
5
8b5
100
AcDbEntity
8
1
100
AcDbVertex
100
AcDb2dVertex
62
5
10
161.500000
20
338.062500
0
VERTEX
5
8b6
100
AcDbEntity
8
1
100
AcDbVertex
100
AcDb2dVertex
62
5
10
160.750000
20
336.812500
0
VERTEX
5
8b7
100
AcDbEntity
8
1
100
AcDbVertex
100
AcDb2dVertex
62
5
10
160.000000
20
335.250000
0
VERTEX
5
8b8
100
AcDbEntity
8
1
100
AcDbVertex
100
AcDb2dVertex
62
5
10
159.750000
20
334.000000
0
VERTEX
5
8b9
100
AcDbEntity
8
1
100
AcDbVertex
100
AcDb2dVertex
62
5
10
160.000000
20
332.750000
0
VERTEX
5
8ba
100
AcDbEntity
8
1
100
AcDbVertex
100
AcDb2dVertex
62
5
10
160.500000
20
331.187500
0
VERTEX
5
8bb
100
AcDbEntity
8
1
100
AcDbVertex
100
AcDb2dVertex
62
5
10
161.500000
20
329.625000
0
SEQEND
5
8bc
100
AcDbEntity
8
1
0
POLYLINE
5
8bd
100
AcDbEntity
8
1
6
CONTINUOUS
62
5
100
AcDb2dPolyline
66
1
10
0.0
20
0.0
30
0.0
70
0
0
VERTEX
5
8be
100
AcDbEntity
8
1
100
AcDbVertex
100
AcDb2dVertex
62
5
10
107.750000
20
334.312500
0
VERTEX
5
8bf
100
AcDbEntity
8
1
100
AcDbVertex
100
AcDb2dVertex
62
5
10
108.000000
20
334.000000
0
VERTEX
5
8c0
100
AcDbEntity
8
1
100
AcDbVertex
100
AcDb2dVertex
62
5
10
114.750000
20
334.000000
0
SEQEND
5
8c1
100
AcDbEntity
8
1
0
POLYLINE
5
8c2
100
AcDbEntity
8
1
6
CONTINUOUS
62
5
100
AcDb2dPolyline
66
1
10
0.0
20
0.0
30
0.0
70
0
0
VERTEX
5
8c3
100
AcDbEntity
8
1
100
AcDbVertex
100
AcDb2dVertex
62
5
10
92.500000
20
335.250000
0
VERTEX
5
8c4
100
AcDbEntity
8
1
100
AcDbVertex
100
AcDb2dVertex
62
5
10
97.250000
20
335.250000
0
VERTEX
5
8c5
100
AcDbEntity
8
1
100
AcDbVertex
100
AcDb2dVertex
62
5
10
97.250000
20
333.687500
0
VERTEX
5
8c6
100
AcDbEntity
8
1
100
AcDbVertex
100
AcDb2dVertex
62
5
10
97.000000
20
332.125000
0
VERTEX
5
8c7
100
AcDbEntity
8
1
100
AcDbVertex
100
AcDb2dVertex
62
5
10
96.250000
20
330.875000
0
VERTEX
5
8c8
100
AcDbEntity
8
1
100
AcDbVertex
100
AcDb2dVertex
62
5
10
95.500000
20
330.875000
0
SEQEND
5
8c9
100
AcDbEntity
8
1
0
POLYLINE
5
8ca
100
AcDbEntity
8
1
6
CONTINUOUS
62
5
100
AcDb2dPolyline
66
1
10
0.0
20
0.0
30
0.0
70
0
0
VERTEX
5
8cb
100
AcDbEntity
8
1
100
AcDbVertex
100
AcDb2dVertex
62
5
10
95.000000
20
337.125000
0
VERTEX
5
8cc
100
AcDbEntity
8
1
100
AcDbVertex
100
AcDb2dVertex
62
5
10
94.500000
20
333.375000
0
VERTEX
5
8cd
100
AcDbEntity
8
1
100
AcDbVertex
100
AcDb2dVertex
62
5
10
93.750000
20
332.125000
0
VERTEX
5
8ce
100
AcDbEntity
8
1
100
AcDbVertex
100
AcDb2dVertex
62
5
10
92.750000
20
330.875000
0
SEQEND
5
8cf
100
AcDbEntity
8
1
0
LINE
5
8d0
100
AcDbEntity
8
1
100
AcDbLine
6
CONTINUOUS
62
5
10
86.250000
20
327.437500
11
86.250000
21
320.250000
0
POLYLINE
5
8d1
100
AcDbEntity
8
1
6
CONTINUOUS
62
5
100
AcDb2dPolyline
66
1
10
0.0
20
0.0
30
0.0
70
0
0
VERTEX
5
8d2
100
AcDbEntity
8
1
100
AcDbVertex
100
AcDb2dVertex
62
5
10
86.250000
20
324.625000
0
VERTEX
5
8d3
100
AcDbEntity
8
1
100
AcDbVertex
100
AcDb2dVertex
62
5
10
86.500000
20
324.625000
0
VERTEX
5
8d4
100
AcDbEntity
8
1
100
AcDbVertex
100
AcDb2dVertex
62
5
10
88.000000
20
323.687500
0
SEQEND
5
8d5
100
AcDbEntity
8
1
0
LINE
5
8d6
100
AcDbEntity
8
1
100
AcDbLine
6
CONTINUOUS
62
5
10
88.250000
20
326.812500
11
88.750000
21
326.187500
0
LINE
5
8d7
100
AcDbEntity
8
1
100
AcDbLine
6
CONTINUOUS
62
5
10
89.250000
20
327.437500
11
89.750000
21
326.812500
0
LINE
5
8d8
100
AcDbEntity
8
1
100
AcDbLine
6
CONTINUOUS
62
5
10
93.250000
20
327.125000
11
93.250000
21
323.375000
0
POLYLINE
5
8d9
100
AcDbEntity
8
1
6
CONTINUOUS
62
5
100
AcDb2dPolyline
66
1
10
0.0
20
0.0
30
0.0
70
0
0
VERTEX
5
8da
100
AcDbEntity
8
1
100
AcDbVertex
100
AcDb2dVertex
62
5
10
96.000000
20
327.437500
0
VERTEX
5
8db
100
AcDbEntity
8
1
100
AcDbVertex
100
AcDb2dVertex
62
5
10
96.000000
20
323.687500
0
VERTEX
5
8dc
100
AcDbEntity
8
1
100
AcDbVertex
100
AcDb2dVertex
62
5
10
95.750000
20
322.437500
0
VERTEX
5
8dd
100
AcDbEntity
8
1
100
AcDbVertex
100
AcDb2dVertex
62
5
10
95.250000
20
321.187500
0
VERTEX
5
8de
100
AcDbEntity
8
1
100
AcDbVertex
100
AcDb2dVertex
62
5
10
94.500000
20
320.250000
0
SEQEND
5
8df
100
AcDbEntity
8
1
0
POLYLINE
5
8e0
100
AcDbEntity
8
1
6
CONTINUOUS
62
5
100
AcDb2dPolyline
66
1
10
0.0
20
0.0
30
0.0
70
0
0
VERTEX
5
8e1
100
AcDbEntity
8
1
100
AcDbVertex
100
AcDb2dVertex
62
5
10
101.750000
20
334.937500
0
VERTEX
5
8e2
100
AcDbEntity
8
1
100
AcDbVertex
100
AcDb2dVertex
62
5
10
101.000000
20
333.375000
0
VERTEX
5
8e3
100
AcDbEntity
8
1
100
AcDbVertex
100
AcDb2dVertex
62
5
10
99.750000
20
331.812500
0
SEQEND
5
8e4
100
AcDbEntity
8
1
0
POLYLINE
5
8e5
100
AcDbEntity
8
1
6
CONTINUOUS
62
5
100
AcDb2dPolyline
66
1
10
0.0
20
0.0
30
0.0
70
0
0
VERTEX
5
8e6
100
AcDbEntity
8
1
100
AcDbVertex
100
AcDb2dVertex
62
5
10
103.750000
20
334.937500
0
VERTEX
5
8e7
100
AcDbEntity
8
1
100
AcDbVertex
100
AcDb2dVertex
62
5
10
104.750000
20
333.375000
0
VERTEX
5
8e8
100
AcDbEntity
8
1
100
AcDbVertex
100
AcDb2dVertex
62
5
10
105.500000
20
331.812500
0
SEQEND
5
8e9
100
AcDbEntity
8
1
0
LINE
5
8ea
100
AcDbEntity
8
1
100
AcDbLine
6
CONTINUOUS
62
5
10
104.500000
20
336.187500
11
105.000000
21
335.562500
0
LINE
5
8eb
100
AcDbEntity
8
1
100
AcDbLine
6
CONTINUOUS
62
5
10
105.250000
20
336.812500
11
105.750000
21
336.187500
0
POLYLINE
5
8ec
100
AcDbEntity
8
1
6
CONTINUOUS
62
5
100
AcDb2dPolyline
66
1
10
0.0
20
0.0
30
0.0
70
0
0
VERTEX
5
8ed
100
AcDbEntity
8
1
100
AcDbVertex
100
AcDb2dVertex
62
5
10
102.250000
20
328.375000
0
VERTEX
5
8ee
100
AcDbEntity
8
1
100
AcDbVertex
100
AcDb2dVertex
62
5
10
101.500000
20
327.125000
0
VERTEX
5
8ef
100
AcDbEntity
8
1
100
AcDbVertex
100
AcDb2dVertex
62
5
10
100.750000
20
326.187500
0
VERTEX
5
8f0
100
AcDbEntity
8
1
100
AcDbVertex
100
AcDb2dVertex
62
5
10
99.750000
20
325.250000
0
SEQEND
5
8f1
100
AcDbEntity
8
1
0
POLYLINE
5
8f2
100
AcDbEntity
8
1
6
CONTINUOUS
62
5
100
AcDb2dPolyline
66
1
10
0.0
20
0.0
30
0.0
70
0
0
VERTEX
5
8f3
100
AcDbEntity
8
1
100
AcDbVertex
100
AcDb2dVertex
62
5
10
102.000000
20
327.750000
0
VERTEX
5
8f4
100
AcDbEntity
8
1
100
AcDbVertex
100
AcDb2dVertex
62
5
10
104.250000
20
327.750000
0
VERTEX
5
8f5
100
AcDbEntity
8
1
100
AcDbVertex
100
AcDb2dVertex
62
5
10
103.000000
20
325.875000
0
SEQEND
5
8f6
100
AcDbEntity
8
1
0
POLYLINE
5
8f7
100
AcDbEntity
8
1
6
CONTINUOUS
62
5
100
AcDb2dPolyline
66
1
10
0.0
20
0.0
30
0.0
70
0
0
VERTEX
5
8f8
100
AcDbEntity
8
1
100
AcDbVertex
100
AcDb2dVertex
62
5
10
100.750000
20
325.875000
0
VERTEX
5
8f9
100
AcDbEntity
8
1
100
AcDbVertex
100
AcDb2dVertex
62
5
10
105.250000
20
325.875000
0
VERTEX
5
8fa
100
AcDbEntity
8
1
100
AcDbVertex
100
AcDb2dVertex
62
5
10
105.250000
20
323.062500
0
VERTEX
5
8fb
100
AcDbEntity
8
1
100
AcDbVertex
100
AcDb2dVertex
62
5
10
100.750000
20
323.062500
0
SEQEND
5
8fc
100
AcDbEntity
8
1
0
LINE
5
8fd
100
AcDbEntity
8
1
100
AcDbLine
6
CONTINUOUS
62
5
10
103.000000
20
325.875000
11
103.000000
21
323.062500
0
POLYLINE
5
8fe
100
AcDbEntity
8
1
6
CONTINUOUS
62
5
100
AcDb2dPolyline
66
1
10
0.0
20
0.0
30
0.0
70
0
0
VERTEX
5
8ff
100
AcDbEntity
8
1
100
AcDbVertex
100
AcDb2dVertex
62
5
10
100.750000
20
325.875000
0
VERTEX
5
900
100
AcDbEntity
8
1
100
AcDbVertex
100
AcDb2dVertex
62
5
10
100.750000
20
320.562500
0
VERTEX
5
901
100
AcDbEntity
8
1
100
AcDbVertex
100
AcDb2dVertex
62
5
10
101.250000
20
319.937500
0
VERTEX
5
902
100
AcDbEntity
8
1
100
AcDbVertex
100
AcDb2dVertex
62
5
10
106.250000
20
319.937500
0
VERTEX
5
903
100
AcDbEntity
8
1
100
AcDbVertex
100
AcDb2dVertex
62
5
10
106.250000
20
321.187500
0
SEQEND
5
904
100
AcDbEntity
8
1
0
POLYLINE
5
905
100
AcDbEntity
8
1
6
CONTINUOUS
62
5
100
AcDb2dPolyline
66
1
10
0.0
20
0.0
30
0.0
70
0
0
VERTEX
5
906
100
AcDbEntity
8
1
100
AcDbVertex
100
AcDb2dVertex
62
5
10
125.500000
20
337.125000
0
VERTEX
5
907
100
AcDbEntity
8
1
100
AcDbVertex
100
AcDb2dVertex
62
5
10
127.000000
20
337.750000
0
VERTEX
5
908
100
AcDbEntity
8
1
100
AcDbVertex
100
AcDb2dVertex
62
5
10
127.000000
20
330.250000
0
SEQEND
5
909
100
AcDbEntity
8
1
0
LINE
5
90a
100
AcDbEntity
8
1
100
AcDbLine
6
CONTINUOUS
62
5
10
125.750000
20
330.250000
11
128.250000
21
330.250000
0
LINE
5
90b
100
AcDbEntity
8
1
100
AcDbLine
6
DOT2
62
5
10
166.250000
20
281.249957
11
169.062500
21
281.249957
0
POLYLINE
5
90c
100
AcDbEntity
8
1
6
DOT2
62
5
100
AcDb2dPolyline
66
1
10
0.0
20
0.0
30
0.0
70
0
0
VERTEX
5
90d
100
AcDbEntity
8
1
100
AcDbVertex
100
AcDb2dVertex
62
5
10
166.250000
20
281.249957
0
VERTEX
5
90e
100
AcDbEntity
8
1
100
AcDbVertex
100
AcDb2dVertex
62
5
10
166.250000
20
277.499957
0
VERTEX
5
90f
100
AcDbEntity
8
1
100
AcDbVertex
100
AcDb2dVertex
62
5
10
166.875000
20
278.124957
0
VERTEX
5
910
100
AcDbEntity
8
1
100
AcDbVertex
100
AcDb2dVertex
62
5
10
167.500000
20
278.437457
0
VERTEX
5
911
100
AcDbEntity
8
1
100
AcDbVertex
100
AcDb2dVertex
62
5
10
168.437500
20
278.437457
0
VERTEX
5
912
100
AcDbEntity
8
1
100
AcDbVertex
100
AcDb2dVertex
62
5
10
169.062500
20
278.124957
0
VERTEX
5
913
100
AcDbEntity
8
1
100
AcDbVertex
100
AcDb2dVertex
62
5
10
169.375000
20
277.187457
0
VERTEX
5
914
100
AcDbEntity
8
1
100
AcDbVertex
100
AcDb2dVertex
62
5
10
169.375000
20
275.312457
0
VERTEX
5
915
100
AcDbEntity
8
1
100
AcDbVertex
100
AcDb2dVertex
62
5
10
168.750000
20
274.374957
0
VERTEX
5
916
100
AcDbEntity
8
1
100
AcDbVertex
100
AcDb2dVertex
62
5
10
167.812500
20
273.749957
0
VERTEX
5
917
100
AcDbEntity
8
1
100
AcDbVertex
100
AcDb2dVertex
62
5
10
166.250000
20
273.749957
0
SEQEND
5
918
100
AcDbEntity
8
1
0
LINE
5
919
100
AcDbEntity
8
1
100
AcDbLine
6
CONTINUOUS
62
5
10
77.750000
20
327.125000
11
79.750000
21
325.875000
0
LINE
5
91a
100
AcDbEntity
8
1
100
AcDbLine
6
CONTINUOUS
62
5
10
77.500000
20
324.625000
11
79.250000
21
323.687500
0
POLYLINE
5
91b
100
AcDbEntity
8
1
6
CONTINUOUS
62
5
100
AcDb2dPolyline
66
1
10
0.0
20
0.0
30
0.0
70
0
0
VERTEX
5
91c
100
AcDbEntity
8
1
100
AcDbVertex
100
AcDb2dVertex
62
5
10
77.250000
20
322.437500
0
VERTEX
5
91d
100
AcDbEntity
8
1
100
AcDbVertex
100
AcDb2dVertex
62
5
10
78.750000
20
321.500000
0
VERTEX
5
91e
100
AcDbEntity
8
1
100
AcDbVertex
100
AcDb2dVertex
62
5
10
80.250000
20
320.562500
0
SEQEND
5
91f
100
AcDbEntity
8
1
0
POLYLINE
5
920
100
AcDbEntity
8
1
6
CONTINUOUS
62
5
100
AcDb2dPolyline
66
1
10
0.0
20
0.0
30
0.0
70
0
0
VERTEX
5
921
100
AcDbEntity
8
1
100
AcDbVertex
100
AcDb2dVertex
62
5
10
77.000000
20
338.375000
0
VERTEX
5
922
100
AcDbEntity
8
1
100
AcDbVertex
100
AcDb2dVertex
62
5
10
76.250000
20
335.250000
0
VERTEX
5
923
100
AcDbEntity
8
1
100
AcDbVertex
100
AcDb2dVertex
62
5
10
75.250000
20
333.687500
0
SEQEND
5
924
100
AcDbEntity
8
1
0
LINE
5
925
100
AcDbEntity
8
1
100
AcDbLine
6
CONTINUOUS
62
5
10
76.250000
20
335.250000
11
76.250000
21
329.625000
0
LINE
5
926
100
AcDbEntity
8
1
100
AcDbLine
6
CONTINUOUS
62
5
10
81.500000
20
337.750000
11
81.500000
21
335.562500
0
LINE
5
927
100
AcDbEntity
8
1
100
AcDbLine
6
CONTINUOUS
62
5
10
77.000000
20
333.687500
11
82.250000
21
333.687500
0
LINE
5
928
100
AcDbEntity
8
1
100
AcDbLine
6
CONTINUOUS
62
5
10
79.750000
20
334.937500
11
79.750000
21
329.625000
0
POLYLINE
5
929
100
AcDbEntity
8
1
6
CONTINUOUS
62
5
100
AcDb2dPolyline
66
1
10
0.0
20
0.0
30
0.0
70
0
0
VERTEX
5
92a
100
AcDbEntity
8
1
100
AcDbVertex
100
AcDb2dVertex
62
5
10
79.750000
20
333.687500
0
VERTEX
5
92b
100
AcDbEntity
8
1
100
AcDbVertex
100
AcDb2dVertex
62
5
10
78.000000
20
331.500000
0
VERTEX
5
92c
100
AcDbEntity
8
1
100
AcDbVertex
100
AcDb2dVertex
62
5
10
77.000000
20
330.562500
0
SEQEND
5
92d
100
AcDbEntity
8
1
0
LINE
5
92e
100
AcDbEntity
8
1
100
AcDbLine
6
CONTINUOUS
62
5
10
79.750000
20
333.687500
11
81.500000
21
331.187500
0
POLYLINE
5
92f
100
AcDbEntity
8
1
6
CONTINUOUS
62
5
100
AcDb2dPolyline
66
1
10
0.0
20
0.0
30
0.0
70
0
0
VERTEX
5
930
100
AcDbEntity
8
1
100
AcDbVertex
100
AcDb2dVertex
62
5
10
81.500000
20
335.562500
0
VERTEX
5
931
100
AcDbEntity
8
1
100
AcDbVertex
100
AcDb2dVertex
62
5
10
78.000000
20
335.562500
0
VERTEX
5
932
100
AcDbEntity
8
1
100
AcDbVertex
100
AcDb2dVertex
62
5
10
78.000000
20
337.750000
0
VERTEX
5
933
100
AcDbEntity
8
1
100
AcDbVertex
100
AcDb2dVertex
62
5
10
81.500000
20
337.750000
0
SEQEND
5
934
100
AcDbEntity
8
1
0
LINE
5
935
100
AcDbEntity
8
1
100
AcDbLine
6
CONTINUOUS
62
5
10
81.500000
20
331.187500
11
82.500000
21
330.250000
0
LINE
5
936
100
AcDbEntity
8
1
100
AcDbLine
6
CONTINUOUS
62
5
10
50.000000
20
350.000000
11
50.000000
21
318.000000
0
LINE
5
937
100
AcDbEntity
8
1
100
AcDbLine
6
CONTINUOUS
62
5
10
50.000000
20
350.000000
11
50.000000
21
318.000000
0
POLYLINE
5
938
100
AcDbEntity
8
1
6
CONTINUOUS
62
5
100
AcDb2dPolyline
66
1
10
0.0
20
0.0
30
0.0
70
0
0
VERTEX
5
939
100
AcDbEntity
8
1
100
AcDbVertex
100
AcDb2dVertex
62
5
10
65.000000
20
300.500000
0
VERTEX
5
93a
100
AcDbEntity
8
1
100
AcDbVertex
100
AcDb2dVertex
62
5
10
64.062500
20
300.500000
0
VERTEX
5
93b
100
AcDbEntity
8
1
100
AcDbVertex
100
AcDb2dVertex
62
5
10
63.125000
20
300.187500
0
VERTEX
5
93c
100
AcDbEntity
8
1
100
AcDbVertex
100
AcDb2dVertex
62
5
10
62.500000
20
298.937500
0
VERTEX
5
93d
100
AcDbEntity
8
1
100
AcDbVertex
100
AcDb2dVertex
62
5
10
62.500000
20
294.562500
0
VERTEX
5
93e
100
AcDbEntity
8
1
100
AcDbVertex
100
AcDb2dVertex
62
5
10
62.812500
20
293.625000
0
VERTEX
5
93f
100
AcDbEntity
8
1
100
AcDbVertex
100
AcDb2dVertex
62
5
10
63.125000
20
293.312500
0
VERTEX
5
940
100
AcDbEntity
8
1
100
AcDbVertex
100
AcDb2dVertex
62
5
10
63.750000
20
293.000000
0
VERTEX
5
941
100
AcDbEntity
8
1
100
AcDbVertex
100
AcDb2dVertex
62
5
10
64.375000
20
293.000000
0
VERTEX
5
942
100
AcDbEntity
8
1
100
AcDbVertex
100
AcDb2dVertex
62
5
10
65.000000
20
293.312500
0
VERTEX
5
943
100
AcDbEntity
8
1
100
AcDbVertex
100
AcDb2dVertex
62
5
10
65.312500
20
293.625000
0
VERTEX
5
944
100
AcDbEntity
8
1
100
AcDbVertex
100
AcDb2dVertex
62
5
10
65.625000
20
294.562500
0
VERTEX
5
945
100
AcDbEntity
8
1
100
AcDbVertex
100
AcDb2dVertex
62
5
10
65.625000
20
296.437500
0
VERTEX
5
946
100
AcDbEntity
8
1
100
AcDbVertex
100
AcDb2dVertex
62
5
10
65.312500
20
297.062500
0
VERTEX
5
947
100
AcDbEntity
8
1
100
AcDbVertex
100
AcDb2dVertex
62
5
10
64.687500
20
297.375000
0
VERTEX
5
948
100
AcDbEntity
8
1
100
AcDbVertex
100
AcDb2dVertex
62
5
10
63.437500
20
297.375000
0
VERTEX
5
949
100
AcDbEntity
8
1
100
AcDbVertex
100
AcDb2dVertex
62
5
10
62.500000
20
297.062500
0
SEQEND
5
94a
100
AcDbEntity
8
1
0
LINE
5
94b
100
AcDbEntity
8
1
100
AcDbLine
6
CONTINUOUS
62
5
10
67.500000
20
300.500000
11
70.312500
21
300.500000
0
POLYLINE
5
94c
100
AcDbEntity
8
1
6
CONTINUOUS
62
5
100
AcDb2dPolyline
66
1
10
0.0
20
0.0
30
0.0
70
0
0
VERTEX
5
94d
100
AcDbEntity
8
1
100
AcDbVertex
100
AcDb2dVertex
62
5
10
67.500000
20
300.500000
0
VERTEX
5
94e
100
AcDbEntity
8
1
100
AcDbVertex
100
AcDb2dVertex
62
5
10
67.500000
20
296.750000
0
VERTEX
5
94f
100
AcDbEntity
8
1
100
AcDbVertex
100
AcDb2dVertex
62
5
10
68.125000
20
297.375000
0
VERTEX
5
950
100
AcDbEntity
8
1
100
AcDbVertex
100
AcDb2dVertex
62
5
10
68.750000
20
297.687500
0
VERTEX
5
951
100
AcDbEntity
8
1
100
AcDbVertex
100
AcDb2dVertex
62
5
10
69.687500
20
297.687500
0
VERTEX
5
952
100
AcDbEntity
8
1
100
AcDbVertex
100
AcDb2dVertex
62
5
10
70.312500
20
297.375000
0
VERTEX
5
953
100
AcDbEntity
8
1
100
AcDbVertex
100
AcDb2dVertex
62
5
10
70.625000
20
296.437500
0
VERTEX
5
954
100
AcDbEntity
8
1
100
AcDbVertex
100
AcDb2dVertex
62
5
10
70.625000
20
294.562500
0
VERTEX
5
955
100
AcDbEntity
8
1
100
AcDbVertex
100
AcDb2dVertex
62
5
10
70.000000
20
293.625000
0
VERTEX
5
956
100
AcDbEntity
8
1
100
AcDbVertex
100
AcDb2dVertex
62
5
10
69.062500
20
293.000000
0
VERTEX
5
957
100
AcDbEntity
8
1
100
AcDbVertex
100
AcDb2dVertex
62
5
10
67.500000
20
293.000000
0
SEQEND
5
958
100
AcDbEntity
8
1
0
POLYLINE
5
959
100
AcDbEntity
8
1
6
CONTINUOUS
62
5
100
AcDb2dPolyline
66
1
10
0.0
20
0.0
30
0.0
70
0
0
VERTEX
5
95a
100
AcDbEntity
8
1
100
AcDbVertex
100
AcDb2dVertex
62
5
10
73.125000
20
299.875000
0
VERTEX
5
95b
100
AcDbEntity
8
1
100
AcDbVertex
100
AcDb2dVertex
62
5
10
74.062500
20
300.500000
0
VERTEX
5
95c
100
AcDbEntity
8
1
100
AcDbVertex
100
AcDb2dVertex
62
5
10
74.062500
20
293.000000
0
SEQEND
5
95d
100
AcDbEntity
8
1
0
LINE
5
95e
100
AcDbEntity
8
1
100
AcDbLine
6
CONTINUOUS
62
5
10
73.437500
20
293.000000
11
74.687500
21
293.000000
0
POLYLINE
5
95f
100
AcDbEntity
8
1
6
CONTINUOUS
62
5
100
AcDb2dPolyline
66
1
10
0.0
20
0.0
30
0.0
70
0
0
VERTEX
5
960
100
AcDbEntity
8
1
100
AcDbVertex
100
AcDb2dVertex
62
5
10
78.125000
20
299.875000
0
VERTEX
5
961
100
AcDbEntity
8
1
100
AcDbVertex
100
AcDb2dVertex
62
5
10
79.062500
20
300.500000
0
VERTEX
5
962
100
AcDbEntity
8
1
100
AcDbVertex
100
AcDb2dVertex
62
5
10
79.062500
20
293.000000
0
SEQEND
5
963
100
AcDbEntity
8
1
0
LINE
5
964
100
AcDbEntity
8
1
100
AcDbLine
6
CONTINUOUS
62
5
10
78.437500
20
293.000000
11
79.687500
21
293.000000
0
LINE
5
965
100
AcDbEntity
8
1
100
AcDbLine
6
CONTINUOUS
62
5
10
83.750000
20
338.062500
11
85.750000
21
338.062500
0
LINE
5
966
100
AcDbEntity
8
1
100
AcDbLine
6
CONTINUOUS
62
5
10
83.500000
20
336.500000
11
86.000000
21
336.500000
0
LINE
5
967
100
AcDbEntity
8
1
100
AcDbLine
6
CONTINUOUS
62
5
10
83.750000
20
335.250000
11
85.750000
21
335.250000
0
LINE
5
968
100
AcDbEntity
8
1
100
AcDbLine
6
CONTINUOUS
62
5
10
83.750000
20
334.000000
11
85.750000
21
334.000000
0
POLYLINE
5
969
100
AcDbEntity
8
1
6
CONTINUOUS
62
5
100
AcDb2dPolyline
66
1
10
0.0
20
0.0
30
0.0
70
1
0
VERTEX
5
96a
100
AcDbEntity
8
1
100
AcDbVertex
100
AcDb2dVertex
62
5
10
83.750000
20
332.437500
0
VERTEX
5
96b
100
AcDbEntity
8
1
100
AcDbVertex
100
AcDb2dVertex
62
5
10
83.750000
20
329.937500
0
VERTEX
5
96c
100
AcDbEntity
8
1
100
AcDbVertex
100
AcDb2dVertex
62
5
10
85.750000
20
329.937500
0
VERTEX
5
96d
100
AcDbEntity
8
1
100
AcDbVertex
100
AcDb2dVertex
62
5
10
85.750000
20
332.437500
0
VERTEX
5
96e
100
AcDbEntity
8
1
100
AcDbVertex
100
AcDb2dVertex
62
5
10
83.750000
20
332.437500
0
SEQEND
5
96f
100
AcDbEntity
8
1
0
LINE
5
970
100
AcDbEntity
8
1
100
AcDbLine
6
CONTINUOUS
62
5
10
86.000000
20
337.750000
11
90.250000
21
337.750000
0
LINE
5
971
100
AcDbEntity
8
1
100
AcDbLine
6
CONTINUOUS
62
5
10
87.250000
20
338.375000
11
87.250000
21
337.125000
0
LINE
5
972
100
AcDbEntity
8
1
100
AcDbLine
6
CONTINUOUS
62
5
10
89.000000
20
338.375000
11
89.000000
21
337.125000
0
POLYLINE
5
973
100
AcDbEntity
8
1
6
CONTINUOUS
62
5
100
AcDb2dPolyline
66
1
10
0.0
20
0.0
30
0.0
70
0
0
VERTEX
5
974
100
AcDbEntity
8
1
100
AcDbVertex
100
AcDb2dVertex
62
5
10
87.250000
20
336.812500
0
VERTEX
5
975
100
AcDbEntity
8
1
100
AcDbVertex
100
AcDb2dVertex
62
5
10
86.750000
20
335.875000
0
VERTEX
5
976
100
AcDbEntity
8
1
100
AcDbVertex
100
AcDb2dVertex
62
5
10
86.000000
20
334.937500
0
SEQEND
5
977
100
AcDbEntity
8
1
0
POLYLINE
5
978
100
AcDbEntity
8
1
6
CONTINUOUS
62
5
100
AcDb2dPolyline
66
1
10
0.0
20
0.0
30
0.0
70
0
0
VERTEX
5
979
100
AcDbEntity
8
1
100
AcDbVertex
100
AcDb2dVertex
62
5
10
86.750000
20
335.875000
0
VERTEX
5
97a
100
AcDbEntity
8
1
100
AcDbVertex
100
AcDb2dVertex
62
5
10
86.750000
20
333.062500
0
VERTEX
5
97b
100
AcDbEntity
8
1
100
AcDbVertex
100
AcDb2dVertex
62
5
10
90.000000
20
333.062500
0
SEQEND
5
97c
100
AcDbEntity
8
1
0
LINE
5
97d
100
AcDbEntity
8
1
100
AcDbLine
6
CONTINUOUS
62
5
10
86.750000
20
335.875000
11
90.000000
21
335.875000
0
POLYLINE
5
97e
100
AcDbEntity
8
1
6
CONTINUOUS
62
5
100
AcDb2dPolyline
66
1
10
0.0
20
0.0
30
0.0
70
0
0
VERTEX
5
97f
100
AcDbEntity
8
1
100
AcDbVertex
100
AcDb2dVertex
62
5
10
88.500000
20
336.812500
0
VERTEX
5
980
100
AcDbEntity
8
1
100
AcDbVertex
100
AcDb2dVertex
62
5
10
88.250000
20
335.875000
0
VERTEX
5
981
100
AcDbEntity
8
1
100
AcDbVertex
100
AcDb2dVertex
62
5
10
88.250000
20
333.062500
0
SEQEND
5
982
100
AcDbEntity
8
1
0
LINE
5
983
100
AcDbEntity
8
1
100
AcDbLine
6
CONTINUOUS
62
5
10
86.750000
20
334.937500
11
89.500000
21
334.937500
0
LINE
5
984
100
AcDbEntity
8
1
100
AcDbLine
6
CONTINUOUS
62
5
10
86.750000
20
334.000000
11
89.500000
21
334.000000
0
POLYLINE
5
985
100
AcDbEntity
8
1
6
CONTINUOUS
62
5
100
AcDb2dPolyline
66
1
10
0.0
20
0.0
30
0.0
70
0
0
VERTEX
5
986
100
AcDbEntity
8
1
100
AcDbVertex
100
AcDb2dVertex
62
5
10
87.000000
20
332.125000
0
VERTEX
5
987
100
AcDbEntity
8
1
100
AcDbVertex
100
AcDb2dVertex
62
5
10
89.750000
20
332.125000
0
VERTEX
5
988
100
AcDbEntity
8
1
100
AcDbVertex
100
AcDb2dVertex
62
5
10
89.250000
20
331.187500
0
VERTEX
5
989
100
AcDbEntity
8
1
100
AcDbVertex
100
AcDb2dVertex
62
5
10
88.500000
20
330.562500
0
VERTEX
5
98a
100
AcDbEntity
8
1
100
AcDbVertex
100
AcDb2dVertex
62
5
10
87.500000
20
329.937500
0
VERTEX
5
98b
100
AcDbEntity
8
1
100
AcDbVertex
100
AcDb2dVertex
62
5
10
86.250000
20
329.625000
0
SEQEND
5
98c
100
AcDbEntity
8
1
0
POLYLINE
5
98d
100
AcDbEntity
8
1
6
CONTINUOUS
62
5
100
AcDb2dPolyline
66
1
10
0.0
20
0.0
30
0.0
70
0
0
VERTEX
5
98e
100
AcDbEntity
8
1
100
AcDbVertex
100
AcDb2dVertex
62
5
10
87.500000
20
331.812500
0
VERTEX
5
98f
100
AcDbEntity
8
1
100
AcDbVertex
100
AcDb2dVertex
62
5
10
88.250000
20
330.875000
0
VERTEX
5
990
100
AcDbEntity
8
1
100
AcDbVertex
100
AcDb2dVertex
62
5
10
89.000000
20
330.250000
0
VERTEX
5
991
100
AcDbEntity
8
1
100
AcDbVertex
100
AcDb2dVertex
62
5
10
90.250000
20
329.625000
0
SEQEND
5
992
100
AcDbEntity
8
1
0
LINE
5
993
100
AcDbEntity
8
1
100
AcDbLine
6
CONTINUOUS
62
5
10
143.105263
20
237.500000
11
144.640447
21
237.500000
0
ARC
5
994
100
AcDbEntity
8
1
100
AcDbCircle
6
CONTINUOUS
62
5
10
165.000000
20
206.500000
40
3.254580
100
AcDbArc
50
162.105857
51
-162.105857
0
LINE
5
995
100
AcDbEntity
8
1
100
AcDbLine
6
CONTINUOUS
62
5
10
161.902858
20
207.500000
11
160.612518
21
207.500000
0
LINE
5
996
100
AcDbEntity
8
1
100
AcDbLine
6
CONTINUOUS
62
5
10
160.612518
20
205.500000
11
161.902858
21
205.500000
0
POLYLINE
5
997
100
AcDbEntity
8
1
6
DOT2
62
5
100
AcDb2dPolyline
66
1
10
0.0
20
0.0
30
0.0
70
1
0
VERTEX
5
998
100
AcDbEntity
8
1
100
AcDbVertex
100
AcDb2dVertex
62
5
10
109.250000
20
204.000000
0
VERTEX
5
999
100
AcDbEntity
8
1
100
AcDbVertex
100
AcDb2dVertex
62
5
10
109.250000
20
204.625000
0
VERTEX
5
99a
100
AcDbEntity
8
1
100
AcDbVertex
100
AcDb2dVertex
62
5
10
109.562500
20
205.250000
0
VERTEX
5
99b
100
AcDbEntity
8
1
100
AcDbVertex
100
AcDb2dVertex
62
5
10
110.187500
20
205.562500
0
VERTEX
5
99c
100
AcDbEntity
8
1
100
AcDbVertex
100
AcDb2dVertex
62
5
10
111.437500
20
205.562500
0
VERTEX
5
99d
100
AcDbEntity
8
1
100
AcDbVertex
100
AcDb2dVertex
62
5
10
112.062500
20
205.250000
0
VERTEX
5
99e
100
AcDbEntity
8
1
100
AcDbVertex
100
AcDb2dVertex
62
5
10
113.312500
20
203.375000
0
VERTEX
5
99f
100
AcDbEntity
8
1
100
AcDbVertex
100
AcDb2dVertex
62
5
10
114.250000
20
202.750000
0
VERTEX
5
9a0
100
AcDbEntity
8
1
100
AcDbVertex
100
AcDb2dVertex
62
5
10
115.500000
20
202.750000
0
VERTEX
5
9a1
100
AcDbEntity
8
1
100
AcDbVertex
100
AcDb2dVertex
62
5
10
116.125000
20
203.062500
0
VERTEX
5
9a2
100
AcDbEntity
8
1
100
AcDbVertex
100
AcDb2dVertex
62
5
10
116.437500
20
203.375000
0
VERTEX
5
9a3
100
AcDbEntity
8
1
100
AcDbVertex
100
AcDb2dVertex
62
5
10
116.750000
20
204.000000
0
VERTEX
5
9a4
100
AcDbEntity
8
1
100
AcDbVertex
100
AcDb2dVertex
62
5
10
116.750000
20
204.625000
0
VERTEX
5
9a5
100
AcDbEntity
8
1
100
AcDbVertex
100
AcDb2dVertex
62
5
10
116.437500
20
205.250000
0
VERTEX
5
9a6
100
AcDbEntity
8
1
100
AcDbVertex
100
AcDb2dVertex
62
5
10
116.125000
20
205.562500
0
VERTEX
5
9a7
100
AcDbEntity
8
1
100
AcDbVertex
100
AcDb2dVertex
62
5
10
115.500000
20
205.875000
0
VERTEX
5
9a8
100
AcDbEntity
8
1
100
AcDbVertex
100
AcDb2dVertex
62
5
10
114.250000
20
205.875000
0
VERTEX
5
9a9
100
AcDbEntity
8
1
100
AcDbVertex
100
AcDb2dVertex
62
5
10
113.312500
20
205.250000
0
VERTEX
5
9aa
100
AcDbEntity
8
1
100
AcDbVertex
100
AcDb2dVertex
62
5
10
112.062500
20
203.375000
0
VERTEX
5
9ab
100
AcDbEntity
8
1
100
AcDbVertex
100
AcDb2dVertex
62
5
10
111.437500
20
203.062500
0
VERTEX
5
9ac
100
AcDbEntity
8
1
100
AcDbVertex
100
AcDb2dVertex
62
5
10
110.187500
20
203.062500
0
VERTEX
5
9ad
100
AcDbEntity
8
1
100
AcDbVertex
100
AcDb2dVertex
62
5
10
109.562500
20
203.375000
0
VERTEX
5
9ae
100
AcDbEntity
8
1
100
AcDbVertex
100
AcDb2dVertex
62
5
10
109.250000
20
204.000000
0
SEQEND
5
9af
100
AcDbEntity
8
1
0
POLYLINE
5
9b0
100
AcDbEntity
8
1
6
DOT2
62
5
100
AcDb2dPolyline
66
1
10
0.0
20
0.0
30
0.0
70
0
0
VERTEX
5
9b1
100
AcDbEntity
8
1
100
AcDbVertex
100
AcDb2dVertex
62
5
10
111.437500
20
207.750000
0
VERTEX
5
9b2
100
AcDbEntity
8
1
100
AcDbVertex
100
AcDb2dVertex
62
5
10
109.875000
20
208.062500
0
VERTEX
5
9b3
100
AcDbEntity
8
1
100
AcDbVertex
100
AcDb2dVertex
62
5
10
109.250000
20
209.000000
0
VERTEX
5
9b4
100
AcDbEntity
8
1
100
AcDbVertex
100
AcDb2dVertex
62
5
10
109.250000
20
209.937500
0
VERTEX
5
9b5
100
AcDbEntity
8
1
100
AcDbVertex
100
AcDb2dVertex
62
5
10
109.562500
20
210.562500
0
VERTEX
5
9b6
100
AcDbEntity
8
1
100
AcDbVertex
100
AcDb2dVertex
62
5
10
110.500000
20
210.875000
0
VERTEX
5
9b7
100
AcDbEntity
8
1
100
AcDbVertex
100
AcDb2dVertex
62
5
10
111.437500
20
210.875000
0
VERTEX
5
9b8
100
AcDbEntity
8
1
100
AcDbVertex
100
AcDb2dVertex
62
5
10
112.375000
20
210.562500
0
VERTEX
5
9b9
100
AcDbEntity
8
1
100
AcDbVertex
100
AcDb2dVertex
62
5
10
116.750000
20
207.750000
0
VERTEX
5
9ba
100
AcDbEntity
8
1
100
AcDbVertex
100
AcDb2dVertex
62
5
10
116.750000
20
210.875000
0
VERTEX
5
9bb
100
AcDbEntity
8
1
100
AcDbVertex
100
AcDb2dVertex
62
5
10
115.812500
20
210.875000
0
SEQEND
5
9bc
100
AcDbEntity
8
1
0
CIRCLE
5
9bd
100
AcDbEntity
8
1
100
AcDbCircle
6
CONTINUOUS
62
5
10
155.000000
20
226.500000
40
2.000000
0
CIRCLE
5
9be
100
AcDbEntity
8
1
100
AcDbCircle
6
CONTINUOUS
62
5
10
155.000000
20
226.500000
40
1.750000
0
LINE
5
9bf
100
AcDbEntity
8
1
100
AcDbLine
6
CONTINUOUS
62
5
10
155.000000
20
226.500000
11
155.000000
21
226.500000
0
LINE
5
9c0
100
AcDbEntity
8
1
100
AcDbLine
6
CONTINUOUS
62
5
10
143.000000
20
244.000000
11
143.000000
21
274.499957
0
LINE
5
9c1
100
AcDbEntity
8
1
100
AcDbLine
6
CONTINUOUS
62
5
10
197.000000
20
244.000000
11
197.000000
21
274.499957
0
POLYLINE
5
9c2
100
AcDbEntity
8
1
6
CONTINUOUS
62
5
100
AcDb2dPolyline
66
1
10
0.0
20
0.0
30
0.0
70
0
0
VERTEX
5
9c3
100
AcDbEntity
8
1
100
AcDbVertex
100
AcDb2dVertex
62
5
10
170.000000
20
272.499957
0
VERTEX
5
9c4
100
AcDbEntity
8
1
100
AcDbVertex
100
AcDb2dVertex
62
5
10
143.000000
20
272.499957
0
VERTEX
5
9c5
100
AcDbEntity
8
1
100
AcDbVertex
100
AcDb2dVertex
62
5
10
149.000000
20
273.499957
0
VERTEX
5
9c6
100
AcDbEntity
8
1
100
AcDbVertex
100
AcDb2dVertex
62
5
10
149.000000
20
271.499957
0
VERTEX
5
9c7
100
AcDbEntity
8
1
100
AcDbVertex
100
AcDb2dVertex
62
5
10
143.000000
20
272.499957
0
VERTEX
5
9c8
100
AcDbEntity
8
1
100
AcDbVertex
100
AcDb2dVertex
62
5
10
149.000000
20
272.999957
0
VERTEX
5
9c9
100
AcDbEntity
8
1
100
AcDbVertex
100
AcDb2dVertex
62
5
10
149.000000
20
271.999957
0
VERTEX
5
9ca
100
AcDbEntity
8
1
100
AcDbVertex
100
AcDb2dVertex
62
5
10
143.000000
20
272.499957
0
SEQEND
5
9cb
100
AcDbEntity
8
1
0
POLYLINE
5
9cc
100
AcDbEntity
8
1
6
CONTINUOUS
62
5
100
AcDb2dPolyline
66
1
10
0.0
20
0.0
30
0.0
70
0
0
VERTEX
5
9cd
100
AcDbEntity
8
1
100
AcDbVertex
100
AcDb2dVertex
62
5
10
170.000000
20
272.499957
0
VERTEX
5
9ce
100
AcDbEntity
8
1
100
AcDbVertex
100
AcDb2dVertex
62
5
10
197.000000
20
272.499957
0
VERTEX
5
9cf
100
AcDbEntity
8
1
100
AcDbVertex
100
AcDb2dVertex
62
5
10
191.000000
20
271.499957
0
VERTEX
5
9d0
100
AcDbEntity
8
1
100
AcDbVertex
100
AcDb2dVertex
62
5
10
191.000000
20
273.499957
0
VERTEX
5
9d1
100
AcDbEntity
8
1
100
AcDbVertex
100
AcDb2dVertex
62
5
10
197.000000
20
272.499957
0
VERTEX
5
9d2
100
AcDbEntity
8
1
100
AcDbVertex
100
AcDb2dVertex
62
5
10
191.000000
20
271.999957
0
VERTEX
5
9d3
100
AcDbEntity
8
1
100
AcDbVertex
100
AcDb2dVertex
62
5
10
191.000000
20
272.999957
0
VERTEX
5
9d4
100
AcDbEntity
8
1
100
AcDbVertex
100
AcDb2dVertex
62
5
10
197.000000
20
272.499957
0
SEQEND
5
9d5
100
AcDbEntity
8
1
0
ARC
5
9d6
100
AcDbEntity
8
1
100
AcDbCircle
6
CONTINUOUS
62
5
10
165.000000
20
206.500000
40
4.500000
100
AcDbArc
50
89.999999
51
-89.999999
0
LINE
5
9d7
100
AcDbEntity
8
1
100
AcDbLine
6
CONTINUOUS
62
5
10
165.000000
20
202.000000
11
175.000000
21
202.000000
0
ARC
5
9d8
100
AcDbEntity
8
1
100
AcDbCircle
6
CONTINUOUS
62
5
10
175.000000
20
206.500000
40
4.500000
100
AcDbArc
50
-89.999999
51
89.999999
0
LINE
5
9d9
100
AcDbEntity
8
1
100
AcDbLine
6
CONTINUOUS
62
5
10
175.000000
20
211.000000
11
165.000000
21
211.000000
0
ARC
5
9da
100
AcDbEntity
8
1
100
AcDbCircle
6
CONTINUOUS
62
5
10
175.000000
20
206.500000
40
3.500000
100
AcDbArc
50
16.601549
51
89.999999
0
LINE
5
9db
100
AcDbEntity
8
1
100
AcDbLine
6
CONTINUOUS
62
5
10
175.000000
20
210.000000
11
171.000000
21
210.000000
0
LINE
5
9dc
100
AcDbEntity
8
1
100
AcDbLine
6
CONTINUOUS
62
5
10
169.000000
20
210.000000
11
165.000000
21
210.000000
0
ARC
5
9dd
100
AcDbEntity
8
1
100
AcDbCircle
6
CONTINUOUS
62
5
10
165.000000
20
206.500000
40
3.500000
100
AcDbArc
50
89.999999
51
163.398449
0
ARC
5
9de
100
AcDbEntity
8
1
100
AcDbCircle
6
CONTINUOUS
62
5
10
165.000000
20
206.500000
40
3.500000
100
AcDbArc
50
-163.398449
51
-89.999999
0
LINE
5
9df
100
AcDbEntity
8
1
100
AcDbLine
6
CONTINUOUS
62
5
10
165.000000
20
203.000000
11
169.000000
21
203.000000
0
LINE
5
9e0
100
AcDbEntity
8
1
100
AcDbLine
6
CONTINUOUS
62
5
10
171.000000
20
203.000000
11
175.000000
21
203.000000
0
ARC
5
9e1
100
AcDbEntity
8
1
100
AcDbCircle
6
CONTINUOUS
62
5
10
175.000000
20
206.500000
40
3.500000
100
AcDbArc
50
-89.999999
51
-16.601549
0
POLYLINE
5
9e2
100
AcDbEntity
8
1
6
CONTINUOUS
62
5
100
AcDb2dPolyline
66
1
10
0.0
20
0.0
30
0.0
70
0
0
VERTEX
5
9e3
100
AcDbEntity
8
1
100
AcDbVertex
100
AcDb2dVertex
62
5
10
169.000000
20
211.000000
0
VERTEX
5
9e4
100
AcDbEntity
8
1
100
AcDbVertex
100
AcDb2dVertex
62
5
10
169.000000
20
209.754580
0
VERTEX
5
9e5
100
AcDbEntity
8
1
100
AcDbVertex
100
AcDb2dVertex
62
5
10
171.000000
20
209.754580
0
VERTEX
5
9e6
100
AcDbEntity
8
1
100
AcDbVertex
100
AcDb2dVertex
62
5
10
171.000000
20
211.000000
0
SEQEND
5
9e7
100
AcDbEntity
8
1
0
ARC
5
9e8
100
AcDbEntity
8
1
100
AcDbCircle
6
CONTINUOUS
62
5
10
165.000000
20
206.500000
40
2.500000
100
AcDbArc
50
89.999999
51
-89.999999
0
LINE
5
9e9
100
AcDbEntity
8
1
100
AcDbLine
6
CONTINUOUS
62
5
10
165.000000
20
204.000000
11
175.000000
21
204.000000
0
ARC
5
9ea
100
AcDbEntity
8
1
100
AcDbCircle
6
CONTINUOUS
62
5
10
175.000000
20
206.500000
40
2.500000
100
AcDbArc
50
-89.999999
51
89.999999
0
LINE
5
9eb
100
AcDbEntity
8
1
100
AcDbLine
6
CONTINUOUS
62
5
10
175.000000
20
209.000000
11
165.000000
21
209.000000
0
POLYLINE
5
9ec
100
AcDbEntity
8
1
6
CONTINUOUS
62
5
100
AcDb2dPolyline
66
1
10
0.0
20
0.0
30
0.0
70
0
0
VERTEX
5
9ed
100
AcDbEntity
8
1
100
AcDbVertex
100
AcDb2dVertex
62
5
10
171.000000
20
202.000000
0
VERTEX
5
9ee
100
AcDbEntity
8
1
100
AcDbVertex
100
AcDb2dVertex
62
5
10
171.000000
20
203.245420
0
VERTEX
5
9ef
100
AcDbEntity
8
1
100
AcDbVertex
100
AcDb2dVertex
62
5
10
169.000000
20
203.245420
0
VERTEX
5
9f0
100
AcDbEntity
8
1
100
AcDbVertex
100
AcDb2dVertex
62
5
10
169.000000
20
202.000000
0
SEQEND
5
9f1
100
AcDbEntity
8
1
0
POLYLINE
5
9f2
100
AcDbEntity
8
1
6
CONTINUOUS
62
5
100
AcDb2dPolyline
66
1
10
0.0
20
0.0
30
0.0
70
0
0
VERTEX
5
9f3
100
AcDbEntity
8
1
100
AcDbVertex
100
AcDb2dVertex
62
5
10
144.499795
20
242.500000
0
VERTEX
5
9f4
100
AcDbEntity
8
1
100
AcDbVertex
100
AcDb2dVertex
62
5
10
146.796104
20
240.803025
0
VERTEX
5
9f5
100
AcDbEntity
8
1
100
AcDbVertex
100
AcDb2dVertex
62
5
10
147.129444
20
240.714043
0
VERTEX
5
9f6
100
AcDbEntity
8
1
100
AcDbVertex
100
AcDb2dVertex
62
5
10
148.129463
20
240.660654
0
VERTEX
5
9f7
100
AcDbEntity
8
1
100
AcDbVertex
100
AcDb2dVertex
62
5
10
149.796162
20
240.642857
0
VERTEX
5
9f8
100
AcDbEntity
8
1
100
AcDbVertex
100
AcDb2dVertex
62
5
10
190.203838
20
240.642857
0
VERTEX
5
9f9
100
AcDbEntity
8
1
100
AcDbVertex
100
AcDb2dVertex
62
5
10
191.870537
20
240.660654
0
VERTEX
5
9fa
100
AcDbEntity
8
1
100
AcDbVertex
100
AcDb2dVertex
62
5
10
192.870556
20
240.714043
0
VERTEX
5
9fb
100
AcDbEntity
8
1
100
AcDbVertex
100
AcDb2dVertex
62
5
10
193.203896
20
240.803025
0
VERTEX
5
9fc
100
AcDbEntity
8
1
100
AcDbVertex
100
AcDb2dVertex
62
5
10
195.500000
20
242.500000
0
SEQEND
5
9fd
100
AcDbEntity
8
1
0
LINE
5
9fe
100
AcDbEntity
8
1
100
AcDbLine
6
CONTINUOUS
62
5
10
10.000000
20
318.000000
11
330.000000
21
318.000000
0
LINE
5
9ff
100
AcDbEntity
8
1
100
AcDbLine
6
CONTINUOUS
62
5
10
10.000000
20
318.000000
11
330.000000
21
318.000000
0
LINE
5
a00
100
AcDbEntity
8
1
100
AcDbLine
6
CONTINUOUS
62
5
10
195.500000
20
173.500000
11
197.000000
21
173.500000
0
LINE
5
a01
100
AcDbEntity
8
1
100
AcDbLine
6
CONTINUOUS
62
5
10
195.359155
20
175.500000
11
196.894737
21
175.500000
0
LINE
5
a02
100
AcDbEntity
8
1
100
AcDbLine
6
CONTINUOUS
62
5
10
195.500000
20
110.500000
11
195.500000
21
107.500000
0
POLYLINE
5
a03
100
AcDbEntity
8
1
6
DOT2
62
5
100
AcDb2dPolyline
66
1
10
0.0
20
0.0
30
0.0
70
1
0
VERTEX
5
a04
100
AcDbEntity
8
1
100
AcDbVertex
100
AcDb2dVertex
62
5
10
172.500000
20
56.250000
0
VERTEX
5
a05
100
AcDbEntity
8
1
100
AcDbVertex
100
AcDb2dVertex
62
5
10
173.125000
20
56.250000
0
VERTEX
5
a06
100
AcDbEntity
8
1
100
AcDbVertex
100
AcDb2dVertex
62
5
10
173.437500
20
55.937500
0
VERTEX
5
a07
100
AcDbEntity
8
1
100
AcDbVertex
100
AcDb2dVertex
62
5
10
174.062500
20
54.687500
0
VERTEX
5
a08
100
AcDbEntity
8
1
100
AcDbVertex
100
AcDb2dVertex
62
5
10
174.375000
20
53.437500
0
VERTEX
5
a09
100
AcDbEntity
8
1
100
AcDbVertex
100
AcDb2dVertex
62
5
10
174.375000
20
51.562500
0
VERTEX
5
a0a
100
AcDbEntity
8
1
100
AcDbVertex
100
AcDb2dVertex
62
5
10
174.062500
20
50.312500
0
VERTEX
5
a0b
100
AcDbEntity
8
1
100
AcDbVertex
100
AcDb2dVertex
62
5
10
173.437500
20
49.062500
0
VERTEX
5
a0c
100
AcDbEntity
8
1
100
AcDbVertex
100
AcDb2dVertex
62
5
10
173.125000
20
48.750000
0
VERTEX
5
a0d
100
AcDbEntity
8
1
100
AcDbVertex
100
AcDb2dVertex
62
5
10
172.500000
20
48.750000
0
VERTEX
5
a0e
100
AcDbEntity
8
1
100
AcDbVertex
100
AcDb2dVertex
62
5
10
172.187500
20
49.062500
0
VERTEX
5
a0f
100
AcDbEntity
8
1
100
AcDbVertex
100
AcDb2dVertex
62
5
10
171.562500
20
50.312500
0
VERTEX
5
a10
100
AcDbEntity
8
1
100
AcDbVertex
100
AcDb2dVertex
62
5
10
171.250000
20
51.562500
0
VERTEX
5
a11
100
AcDbEntity
8
1
100
AcDbVertex
100
AcDb2dVertex
62
5
10
171.250000
20
53.437500
0
VERTEX
5
a12
100
AcDbEntity
8
1
100
AcDbVertex
100
AcDb2dVertex
62
5
10
171.562500
20
54.687500
0
VERTEX
5
a13
100
AcDbEntity
8
1
100
AcDbVertex
100
AcDb2dVertex
62
5
10
172.187500
20
55.937500
0
VERTEX
5
a14
100
AcDbEntity
8
1
100
AcDbVertex
100
AcDb2dVertex
62
5
10
172.500000
20
56.250000
0
SEQEND
5
a15
100
AcDbEntity
8
1
0
LINE
5
a16
100
AcDbEntity
8
1
100
AcDbLine
6
CONTINUOUS
62
5
10
143.105263
20
175.500000
11
144.640447
21
175.500000
0
LINE
5
a17
100
AcDbEntity
8
1
100
AcDbLine
6
CONTINUOUS
62
5
10
144.500000
20
107.500000
11
144.500000
21
110.500000
0
POLYLINE
5
a18
100
AcDbEntity
8
1
6
DOT2
62
5
100
AcDb2dPolyline
66
1
10
0.0
20
0.0
30
0.0
70
1
0
VERTEX
5
a19
100
AcDbEntity
8
1
100
AcDbVertex
100
AcDb2dVertex
62
5
10
109.250000
20
94.000000
0
VERTEX
5
a1a
100
AcDbEntity
8
1
100
AcDbVertex
100
AcDb2dVertex
62
5
10
109.250000
20
94.625000
0
VERTEX
5
a1b
100
AcDbEntity
8
1
100
AcDbVertex
100
AcDb2dVertex
62
5
10
109.562500
20
95.250000
0
VERTEX
5
a1c
100
AcDbEntity
8
1
100
AcDbVertex
100
AcDb2dVertex
62
5
10
110.187500
20
95.562500
0
VERTEX
5
a1d
100
AcDbEntity
8
1
100
AcDbVertex
100
AcDb2dVertex
62
5
10
111.437500
20
95.562500
0
VERTEX
5
a1e
100
AcDbEntity
8
1
100
AcDbVertex
100
AcDb2dVertex
62
5
10
112.062500
20
95.250000
0
VERTEX
5
a1f
100
AcDbEntity
8
1
100
AcDbVertex
100
AcDb2dVertex
62
5
10
113.312500
20
93.375000
0
VERTEX
5
a20
100
AcDbEntity
8
1
100
AcDbVertex
100
AcDb2dVertex
62
5
10
114.250000
20
92.750000
0
VERTEX
5
a21
100
AcDbEntity
8
1
100
AcDbVertex
100
AcDb2dVertex
62
5
10
115.500000
20
92.750000
0
VERTEX
5
a22
100
AcDbEntity
8
1
100
AcDbVertex
100
AcDb2dVertex
62
5
10
116.125000
20
93.062500
0
VERTEX
5
a23
100
AcDbEntity
8
1
100
AcDbVertex
100
AcDb2dVertex
62
5
10
116.437500
20
93.375000
0
VERTEX
5
a24
100
AcDbEntity
8
1
100
AcDbVertex
100
AcDb2dVertex
62
5
10
116.750000
20
94.000000
0
VERTEX
5
a25
100
AcDbEntity
8
1
100
AcDbVertex
100
AcDb2dVertex
62
5
10
116.750000
20
94.625000
0
VERTEX
5
a26
100
AcDbEntity
8
1
100
AcDbVertex
100
AcDb2dVertex
62
5
10
116.437500
20
95.250000
0
VERTEX
5
a27
100
AcDbEntity
8
1
100
AcDbVertex
100
AcDb2dVertex
62
5
10
116.125000
20
95.562500
0
VERTEX
5
a28
100
AcDbEntity
8
1
100
AcDbVertex
100
AcDb2dVertex
62
5
10
115.500000
20
95.875000
0
VERTEX
5
a29
100
AcDbEntity
8
1
100
AcDbVertex
100
AcDb2dVertex
62
5
10
114.250000
20
95.875000
0
VERTEX
5
a2a
100
AcDbEntity
8
1
100
AcDbVertex
100
AcDb2dVertex
62
5
10
113.312500
20
95.250000
0
VERTEX
5
a2b
100
AcDbEntity
8
1
100
AcDbVertex
100
AcDb2dVertex
62
5
10
112.062500
20
93.375000
0
VERTEX
5
a2c
100
AcDbEntity
8
1
100
AcDbVertex
100
AcDb2dVertex
62
5
10
111.437500
20
93.062500
0
VERTEX
5
a2d
100
AcDbEntity
8
1
100
AcDbVertex
100
AcDb2dVertex
62
5
10
110.187500
20
93.062500
0
VERTEX
5
a2e
100
AcDbEntity
8
1
100
AcDbVertex
100
AcDb2dVertex
62
5
10
109.562500
20
93.375000
0
VERTEX
5
a2f
100
AcDbEntity
8
1
100
AcDbVertex
100
AcDb2dVertex
62
5
10
109.250000
20
94.000000
0
SEQEND
5
a30
100
AcDbEntity
8
1
0
LINE
5
a31
100
AcDbEntity
8
1
100
AcDbLine
6
DOT2
62
5
10
166.250000
20
56.250000
11
169.062500
21
56.250000
0
POLYLINE
5
a32
100
AcDbEntity
8
1
6
DOT2
62
5
100
AcDb2dPolyline
66
1
10
0.0
20
0.0
30
0.0
70
0
0
VERTEX
5
a33
100
AcDbEntity
8
1
100
AcDbVertex
100
AcDb2dVertex
62
5
10
166.250000
20
56.250000
0
VERTEX
5
a34
100
AcDbEntity
8
1
100
AcDbVertex
100
AcDb2dVertex
62
5
10
166.250000
20
52.500000
0
VERTEX
5
a35
100
AcDbEntity
8
1
100
AcDbVertex
100
AcDb2dVertex
62
5
10
166.875000
20
53.125000
0
VERTEX
5
a36
100
AcDbEntity
8
1
100
AcDbVertex
100
AcDb2dVertex
62
5
10
167.500000
20
53.437500
0
VERTEX
5
a37
100
AcDbEntity
8
1
100
AcDbVertex
100
AcDb2dVertex
62
5
10
168.437500
20
53.437500
0
VERTEX
5
a38
100
AcDbEntity
8
1
100
AcDbVertex
100
AcDb2dVertex
62
5
10
169.062500
20
53.125000
0
VERTEX
5
a39
100
AcDbEntity
8
1
100
AcDbVertex
100
AcDb2dVertex
62
5
10
169.375000
20
52.187500
0
VERTEX
5
a3a
100
AcDbEntity
8
1
100
AcDbVertex
100
AcDb2dVertex
62
5
10
169.375000
20
50.312500
0
VERTEX
5
a3b
100
AcDbEntity
8
1
100
AcDbVertex
100
AcDb2dVertex
62
5
10
168.750000
20
49.375000
0
VERTEX
5
a3c
100
AcDbEntity
8
1
100
AcDbVertex
100
AcDb2dVertex
62
5
10
167.812500
20
48.750000
0
VERTEX
5
a3d
100
AcDbEntity
8
1
100
AcDbVertex
100
AcDb2dVertex
62
5
10
166.250000
20
48.750000
0
SEQEND
5
a3e
100
AcDbEntity
8
1
0
POLYLINE
5
a3f
100
AcDbEntity
8
1
6
DOT2
62
5
100
AcDb2dPolyline
66
1
10
0.0
20
0.0
30
0.0
70
0
0
VERTEX
5
a40
100
AcDbEntity
8
1
100
AcDbVertex
100
AcDb2dVertex
62
5
10
111.125000
20
87.750000
0
VERTEX
5
a41
100
AcDbEntity
8
1
100
AcDbVertex
100
AcDb2dVertex
62
5
10
109.875000
20
88.062500
0
VERTEX
5
a42
100
AcDbEntity
8
1
100
AcDbVertex
100
AcDb2dVertex
62
5
10
109.250000
20
88.687500
0
VERTEX
5
a43
100
AcDbEntity
8
1
100
AcDbVertex
100
AcDb2dVertex
62
5
10
109.250000
20
89.625000
0
VERTEX
5
a44
100
AcDbEntity
8
1
100
AcDbVertex
100
AcDb2dVertex
62
5
10
109.562500
20
90.250000
0
VERTEX
5
a45
100
AcDbEntity
8
1
100
AcDbVertex
100
AcDb2dVertex
62
5
10
110.500000
20
90.562500
0
VERTEX
5
a46
100
AcDbEntity
8
1
100
AcDbVertex
100
AcDb2dVertex
62
5
10
111.750000
20
90.562500
0
VERTEX
5
a47
100
AcDbEntity
8
1
100
AcDbVertex
100
AcDb2dVertex
62
5
10
112.375000
20
90.250000
0
VERTEX
5
a48
100
AcDbEntity
8
1
100
AcDbVertex
100
AcDb2dVertex
62
5
10
113.000000
20
89.625000
0
VERTEX
5
a49
100
AcDbEntity
8
1
100
AcDbVertex
100
AcDb2dVertex
62
5
10
113.000000
20
88.687500
0
SEQEND
5
a4a
100
AcDbEntity
8
1
0
POLYLINE
5
a4b
100
AcDbEntity
8
1
6
DOT2
62
5
100
AcDb2dPolyline
66
1
10
0.0
20
0.0
30
0.0
70
0
0
VERTEX
5
a4c
100
AcDbEntity
8
1
100
AcDbVertex
100
AcDb2dVertex
62
5
10
113.000000
20
89.625000
0
VERTEX
5
a4d
100
AcDbEntity
8
1
100
AcDbVertex
100
AcDb2dVertex
62
5
10
113.625000
20
90.562500
0
VERTEX
5
a4e
100
AcDbEntity
8
1
100
AcDbVertex
100
AcDb2dVertex
62
5
10
114.562500
20
90.875000
0
VERTEX
5
a4f
100
AcDbEntity
8
1
100
AcDbVertex
100
AcDb2dVertex
62
5
10
115.500000
20
90.875000
0
VERTEX
5
a50
100
AcDbEntity
8
1
100
AcDbVertex
100
AcDb2dVertex
62
5
10
116.125000
20
90.562500
0
VERTEX
5
a51
100
AcDbEntity
8
1
100
AcDbVertex
100
AcDb2dVertex
62
5
10
116.750000
20
89.625000
0
VERTEX
5
a52
100
AcDbEntity
8
1
100
AcDbVertex
100
AcDb2dVertex
62
5
10
116.750000
20
88.687500
0
VERTEX
5
a53
100
AcDbEntity
8
1
100
AcDbVertex
100
AcDb2dVertex
62
5
10
116.437500
20
88.062500
0
VERTEX
5
a54
100
AcDbEntity
8
1
100
AcDbVertex
100
AcDb2dVertex
62
5
10
115.500000
20
87.437500
0
SEQEND
5
a55
100
AcDbEntity
8
1
0
LINE
5
a56
100
AcDbEntity
8
1
100
AcDbLine
6
CONTINUOUS
62
5
10
141.500000
20
110.500000
11
116.000000
21
110.500000
0
LINE
5
a57
100
AcDbEntity
8
1
100
AcDbLine
6
CONTINUOUS
62
5
10
148.718139
20
72.500000
11
116.000000
21
72.500000
0
POLYLINE
5
a58
100
AcDbEntity
8
1
6
CONTINUOUS
62
5
100
AcDb2dPolyline
66
1
10
0.0
20
0.0
30
0.0
70
0
0
VERTEX
5
a59
100
AcDbEntity
8
1
100
AcDbVertex
100
AcDb2dVertex
62
5
10
118.000000
20
91.500000
0
VERTEX
5
a5a
100
AcDbEntity
8
1
100
AcDbVertex
100
AcDb2dVertex
62
5
10
118.000000
20
72.500000
0
VERTEX
5
a5b
100
AcDbEntity
8
1
100
AcDbVertex
100
AcDb2dVertex
62
5
10
117.000000
20
78.500000
0
VERTEX
5
a5c
100
AcDbEntity
8
1
100
AcDbVertex
100
AcDb2dVertex
62
5
10
119.000000
20
78.500000
0
VERTEX
5
a5d
100
AcDbEntity
8
1
100
AcDbVertex
100
AcDb2dVertex
62
5
10
118.000000
20
72.500000
0
VERTEX
5
a5e
100
AcDbEntity
8
1
100
AcDbVertex
100
AcDb2dVertex
62
5
10
117.500000
20
78.500000
0
VERTEX
5
a5f
100
AcDbEntity
8
1
100
AcDbVertex
100
AcDb2dVertex
62
5
10
118.500000
20
78.500000
0
VERTEX
5
a60
100
AcDbEntity
8
1
100
AcDbVertex
100
AcDb2dVertex
62
5
10
118.000000
20
72.500000
0
SEQEND
5
a61
100
AcDbEntity
8
1
0
POLYLINE
5
a62
100
AcDbEntity
8
1
6
CONTINUOUS
62
5
100
AcDb2dPolyline
66
1
10
0.0
20
0.0
30
0.0
70
0
0
VERTEX
5
a63
100
AcDbEntity
8
1
100
AcDbVertex
100
AcDb2dVertex
62
5
10
118.000000
20
91.500000
0
VERTEX
5
a64
100
AcDbEntity
8
1
100
AcDbVertex
100
AcDb2dVertex
62
5
10
118.000000
20
110.500000
0
VERTEX
5
a65
100
AcDbEntity
8
1
100
AcDbVertex
100
AcDb2dVertex
62
5
10
119.000000
20
104.500000
0
VERTEX
5
a66
100
AcDbEntity
8
1
100
AcDbVertex
100
AcDb2dVertex
62
5
10
117.000000
20
104.500000
0
VERTEX
5
a67
100
AcDbEntity
8
1
100
AcDbVertex
100
AcDb2dVertex
62
5
10
118.000000
20
110.500000
0
VERTEX
5
a68
100
AcDbEntity
8
1
100
AcDbVertex
100
AcDb2dVertex
62
5
10
118.500000
20
104.500000
0
VERTEX
5
a69
100
AcDbEntity
8
1
100
AcDbVertex
100
AcDb2dVertex
62
5
10
117.500000
20
104.500000
0
VERTEX
5
a6a
100
AcDbEntity
8
1
100
AcDbVertex
100
AcDb2dVertex
62
5
10
118.000000
20
110.500000
0
SEQEND
5
a6b
100
AcDbEntity
8
1
0
LINE
5
a6c
100
AcDbEntity
8
1
100
AcDbLine
6
CONTINUOUS
62
5
10
145.000000
20
71.000000
11
145.000000
21
45.500000
0
LINE
5
a6d
100
AcDbEntity
8
1
100
AcDbLine
6
CONTINUOUS
62
5
10
195.000000
20
71.000000
11
195.000000
21
45.500000
0
POLYLINE
5
a6e
100
AcDbEntity
8
1
6
CONTINUOUS
62
5
100
AcDb2dPolyline
66
1
10
0.0
20
0.0
30
0.0
70
0
0
VERTEX
5
a6f
100
AcDbEntity
8
1
100
AcDbVertex
100
AcDb2dVertex
62
5
10
170.000000
20
47.500000
0
VERTEX
5
a70
100
AcDbEntity
8
1
100
AcDbVertex
100
AcDb2dVertex
62
5
10
145.000000
20
47.500000
0
VERTEX
5
a71
100
AcDbEntity
8
1
100
AcDbVertex
100
AcDb2dVertex
62
5
10
151.000000
20
48.500000
0
VERTEX
5
a72
100
AcDbEntity
8
1
100
AcDbVertex
100
AcDb2dVertex
62
5
10
151.000000
20
46.500000
0
VERTEX
5
a73
100
AcDbEntity
8
1
100
AcDbVertex
100
AcDb2dVertex
62
5
10
145.000000
20
47.500000
0
VERTEX
5
a74
100
AcDbEntity
8
1
100
AcDbVertex
100
AcDb2dVertex
62
5
10
151.000000
20
48.000000
0
VERTEX
5
a75
100
AcDbEntity
8
1
100
AcDbVertex
100
AcDb2dVertex
62
5
10
151.000000
20
47.000000
0
VERTEX
5
a76
100
AcDbEntity
8
1
100
AcDbVertex
100
AcDb2dVertex
62
5
10
145.000000
20
47.500000
0
SEQEND
5
a77
100
AcDbEntity
8
1
0
POLYLINE
5
a78
100
AcDbEntity
8
1
6
CONTINUOUS
62
5
100
AcDb2dPolyline
66
1
10
0.0
20
0.0
30
0.0
70
0
0
VERTEX
5
a79
100
AcDbEntity
8
1
100
AcDbVertex
100
AcDb2dVertex
62
5
10
170.000000
20
47.500000
0
VERTEX
5
a7a
100
AcDbEntity
8
1
100
AcDbVertex
100
AcDb2dVertex
62
5
10
195.000000
20
47.500000
0
VERTEX
5
a7b
100
AcDbEntity
8
1
100
AcDbVertex
100
AcDb2dVertex
62
5
10
189.000000
20
46.500000
0
VERTEX
5
a7c
100
AcDbEntity
8
1
100
AcDbVertex
100
AcDb2dVertex
62
5
10
189.000000
20
48.500000
0
VERTEX
5
a7d
100
AcDbEntity
8
1
100
AcDbVertex
100
AcDb2dVertex
62
5
10
195.000000
20
47.500000
0
VERTEX
5
a7e
100
AcDbEntity
8
1
100
AcDbVertex
100
AcDb2dVertex
62
5
10
189.000000
20
47.000000
0
VERTEX
5
a7f
100
AcDbEntity
8
1
100
AcDbVertex
100
AcDb2dVertex
62
5
10
189.000000
20
48.000000
0
VERTEX
5
a80
100
AcDbEntity
8
1
100
AcDbVertex
100
AcDb2dVertex
62
5
10
195.000000
20
47.500000
0
SEQEND
5
a81
100
AcDbEntity
8
1
0
POLYLINE
5
a82
100
AcDbEntity
8
1
6
CONTINUOUS
62
5
100
AcDb2dPolyline
66
1
10
0.0
20
0.0
30
0.0
70
0
0
VERTEX
5
a83
100
AcDbEntity
8
1
100
AcDbVertex
100
AcDb2dVertex
62
5
10
195.500205
20
170.500000
0
VERTEX
5
a84
100
AcDbEntity
8
1
100
AcDbVertex
100
AcDb2dVertex
62
5
10
193.203896
20
172.196975
0
VERTEX
5
a85
100
AcDbEntity
8
1
100
AcDbVertex
100
AcDb2dVertex
62
5
10
192.870556
20
172.285957
0
VERTEX
5
a86
100
AcDbEntity
8
1
100
AcDbVertex
100
AcDb2dVertex
62
5
10
191.870537
20
172.339346
0
VERTEX
5
a87
100
AcDbEntity
8
1
100
AcDbVertex
100
AcDb2dVertex
62
5
10
190.203838
20
172.357143
0
VERTEX
5
a88
100
AcDbEntity
8
1
100
AcDbVertex
100
AcDb2dVertex
62
5
10
149.796162
20
172.357143
0
VERTEX
5
a89
100
AcDbEntity
8
1
100
AcDbVertex
100
AcDb2dVertex
62
5
10
148.129463
20
172.339346
0
VERTEX
5
a8a
100
AcDbEntity
8
1
100
AcDbVertex
100
AcDb2dVertex
62
5
10
147.129444
20
172.285957
0
VERTEX
5
a8b
100
AcDbEntity
8
1
100
AcDbVertex
100
AcDb2dVertex
62
5
10
146.796104
20
172.196975
0
VERTEX
5
a8c
100
AcDbEntity
8
1
100
AcDbVertex
100
AcDb2dVertex
62
5
10
144.500000
20
170.500000
0
SEQEND
5
a8d
100
AcDbEntity
8
1
0
ARC
5
a8e
100
AcDbEntity
8
1
100
AcDbCircle
6
CONTINUOUS
62
5
10
149.802804
20
78.014097
40
3.014105
100
AcDbArc
50
-175.983077
51
-90.126258
0
LINE
5
a8f
100
AcDbEntity
8
1
100
AcDbLine
6
CONTINUOUS
62
5
10
149.796162
20
75.000000
11
190.203838
21
75.000000
0
ARC
5
a90
100
AcDbEntity
8
1
100
AcDbCircle
6
CONTINUOUS
62
5
10
190.197217
20
78.014076
40
3.014084
100
AcDbArc
50
-89.874141
51
-4.016919
0
LINE
5
a91
100
AcDbEntity
8
1
100
AcDbLine
6
CONTINUOUS
62
5
10
193.203896
20
77.802937
11
195.288732
21
107.500000
0
LINE
5
a92
100
AcDbEntity
8
1
100
AcDbLine
6
CONTINUOUS
62
5
10
144.711268
20
107.500000
11
146.796104
21
77.802956
0
ARC
5
a93
100
AcDbEntity
8
1
100
AcDbCircle
6
CONTINUOUS
62
5
10
189.777756
20
78.011729
40
5.511730
100
AcDbArc
50
-89.957325
51
-0.121922
0
LINE
5
a94
100
AcDbEntity
8
1
100
AcDbLine
6
CONTINUOUS
62
5
10
189.781861
20
72.500000
11
150.218139
21
72.500000
0
ARC
5
a95
100
AcDbEntity
8
1
100
AcDbCircle
6
CONTINUOUS
62
5
10
150.218139
20
78.000000
40
5.500000
100
AcDbArc
50
-176.987211
51
-89.999999
0
POLYLINE
5
a96
100
AcDbEntity
8
1
6
CONTINUOUS
62
5
100
AcDb2dPolyline
66
1
10
0.0
20
0.0
30
0.0
70
0
0
VERTEX
5
a97
100
AcDbEntity
8
1
100
AcDbVertex
100
AcDb2dVertex
62
5
10
144.725741
20
77.710926
0
VERTEX
5
a98
100
AcDbEntity
8
1
100
AcDbVertex
100
AcDb2dVertex
62
5
10
143.000000
20
110.500000
0
VERTEX
5
a99
100
AcDbEntity
8
1
100
AcDbVertex
100
AcDb2dVertex
62
5
10
146.500000
20
110.500000
0
VERTEX
5
a9a
100
AcDbEntity
8
1
100
AcDbVertex
100
AcDb2dVertex
62
5
10
146.500000
20
107.500000
0
VERTEX
5
a9b
100
AcDbEntity
8
1
100
AcDbVertex
100
AcDb2dVertex
62
5
10
143.157895
20
107.500000
0
SEQEND
5
a9c
100
AcDbEntity
8
1
0
POLYLINE
5
a9d
100
AcDbEntity
8
1
6
CONTINUOUS
62
5
100
AcDb2dPolyline
66
1
10
0.0
20
0.0
30
0.0
70
0
0
VERTEX
5
a9e
100
AcDbEntity
8
1
100
AcDbVertex
100
AcDb2dVertex
62
5
10
196.842105
20
107.500000
0
VERTEX
5
a9f
100
AcDbEntity
8
1
100
AcDbVertex
100
AcDb2dVertex
62
5
10
193.500000
20
107.500000
0
VERTEX
5
aa0
100
AcDbEntity
8
1
100
AcDbVertex
100
AcDb2dVertex
62
5
10
193.500000
20
110.500000
0
VERTEX
5
aa1
100
AcDbEntity
8
1
100
AcDbVertex
100
AcDb2dVertex
62
5
10
197.000000
20
110.500000
0
VERTEX
5
aa2
100
AcDbEntity
8
1
100
AcDbVertex
100
AcDb2dVertex
62
5
10
195.289474
20
78.000000
0
SEQEND
5
aa3
100
AcDbEntity
8
1
0
LINE
5
aa4
100
AcDbEntity
8
1
100
AcDbLine
6
CONTINUOUS
62
5
10
144.000000
20
247.500000
11
116.000000
21
247.500000
0
LINE
5
aa5
100
AcDbEntity
8
1
100
AcDbLine
6
CONTINUOUS
62
5
10
144.000000
20
165.500000
11
116.000000
21
165.500000
0
POLYLINE
5
aa6
100
AcDbEntity
8
1
6
CONTINUOUS
62
5
100
AcDb2dPolyline
66
1
10
0.0
20
0.0
30
0.0
70
0
0
VERTEX
5
aa7
100
AcDbEntity
8
1
100
AcDbVertex
100
AcDb2dVertex
62
5
10
118.000000
20
206.500000
0
VERTEX
5
aa8
100
AcDbEntity
8
1
100
AcDbVertex
100
AcDb2dVertex
62
5
10
118.000000
20
165.500000
0
VERTEX
5
aa9
100
AcDbEntity
8
1
100
AcDbVertex
100
AcDb2dVertex
62
5
10
117.000000
20
171.500000
0
VERTEX
5
aaa
100
AcDbEntity
8
1
100
AcDbVertex
100
AcDb2dVertex
62
5
10
119.000000
20
171.500000
0
VERTEX
5
aab
100
AcDbEntity
8
1
100
AcDbVertex
100
AcDb2dVertex
62
5
10
118.000000
20
165.500000
0
VERTEX
5
aac
100
AcDbEntity
8
1
100
AcDbVertex
100
AcDb2dVertex
62
5
10
117.500000
20
171.500000
0
VERTEX
5
aad
100
AcDbEntity
8
1
100
AcDbVertex
100
AcDb2dVertex
62
5
10
118.500000
20
171.500000
0
VERTEX
5
aae
100
AcDbEntity
8
1
100
AcDbVertex
100
AcDb2dVertex
62
5
10
118.000000
20
165.500000
0
SEQEND
5
aaf
100
AcDbEntity
8
1
0
POLYLINE
5
ab0
100
AcDbEntity
8
1
6
CONTINUOUS
62
5
100
AcDb2dPolyline
66
1
10
0.0
20
0.0
30
0.0
70
0
0
VERTEX
5
ab1
100
AcDbEntity
8
1
100
AcDbVertex
100
AcDb2dVertex
62
5
10
118.000000
20
206.500000
0
VERTEX
5
ab2
100
AcDbEntity
8
1
100
AcDbVertex
100
AcDb2dVertex
62
5
10
118.000000
20
247.500000
0
VERTEX
5
ab3
100
AcDbEntity
8
1
100
AcDbVertex
100
AcDb2dVertex
62
5
10
119.000000
20
241.500000
0
VERTEX
5
ab4
100
AcDbEntity
8
1
100
AcDbVertex
100
AcDb2dVertex
62
5
10
117.000000
20
241.500000
0
VERTEX
5
ab5
100
AcDbEntity
8
1
100
AcDbVertex
100
AcDb2dVertex
62
5
10
118.000000
20
247.500000
0
VERTEX
5
ab6
100
AcDbEntity
8
1
100
AcDbVertex
100
AcDb2dVertex
62
5
10
118.500000
20
241.500000
0
VERTEX
5
ab7
100
AcDbEntity
8
1
100
AcDbVertex
100
AcDb2dVertex
62
5
10
117.500000
20
241.500000
0
VERTEX
5
ab8
100
AcDbEntity
8
1
100
AcDbVertex
100
AcDb2dVertex
62
5
10
118.000000
20
247.500000
0
SEQEND
5
ab9
100
AcDbEntity
8
1
0
ARC
5
aba
100
AcDbEntity
8
1
100
AcDbCircle
6
CONTINUOUS
62
5
10
145.500000
20
246.500000
40
1.000000
100
AcDbArc
50
-0.000000
51
-179.999998
0
LINE
5
abb
100
AcDbEntity
8
1
100
AcDbLine
6
CONTINUOUS
62
5
10
146.500000
20
246.500000
11
146.500000
21
244.500000
0
ARC
5
abc
100
AcDbEntity
8
1
100
AcDbCircle
6
CONTINUOUS
62
5
10
145.000000
20
244.500000
40
1.500000
100
AcDbArc
50
-60.722386
51
-0.000000
0
POLYLINE
5
abd
100
AcDbEntity
8
1
6
CONTINUOUS
62
5
100
AcDb2dPolyline
66
1
10
0.0
20
0.0
30
0.0
70
0
0
VERTEX
5
abe
100
AcDbEntity
8
1
100
AcDbVertex
100
AcDb2dVertex
62
5
10
145.733563
20
243.191609
0
VERTEX
5
abf
100
AcDbEntity
8
1
100
AcDbVertex
100
AcDb2dVertex
62
5
10
144.499795
20
242.500000
0
VERTEX
5
ac0
100
AcDbEntity
8
1
100
AcDbVertex
100
AcDb2dVertex
62
5
10
144.500000
20
239.500000
0
VERTEX
5
ac1
100
AcDbEntity
8
1
100
AcDbVertex
100
AcDb2dVertex
62
5
10
144.640845
20
237.500000
0
VERTEX
5
ac2
100
AcDbEntity
8
1
100
AcDbVertex
100
AcDb2dVertex
62
5
10
144.640845
20
175.500000
0
VERTEX
5
ac3
100
AcDbEntity
8
1
100
AcDbVertex
100
AcDb2dVertex
62
5
10
144.500000
20
173.500000
0
VERTEX
5
ac4
100
AcDbEntity
8
1
100
AcDbVertex
100
AcDb2dVertex
62
5
10
144.500000
20
170.500152
0
VERTEX
5
ac5
100
AcDbEntity
8
1
100
AcDbVertex
100
AcDb2dVertex
62
5
10
145.733563
20
169.808391
0
SEQEND
5
ac6
100
AcDbEntity
8
1
0
ARC
5
ac7
100
AcDbEntity
8
1
100
AcDbCircle
6
CONTINUOUS
62
5
10
145.000000
20
168.500000
40
1.500000
100
AcDbArc
50
-0.000000
51
60.722386
0
LINE
5
ac8
100
AcDbEntity
8
1
100
AcDbLine
6
CONTINUOUS
62
5
10
146.500000
20
168.500000
11
146.500000
21
166.500000
0
ARC
5
ac9
100
AcDbEntity
8
1
100
AcDbCircle
6
CONTINUOUS
62
5
10
145.500000
20
166.500000
40
1.000000
100
AcDbArc
50
179.999998
51
0.000000
0
LINE
5
aca
100
AcDbEntity
8
1
100
AcDbLine
6
CONTINUOUS
62
5
10
144.500000
20
166.500000
11
144.500000
21
169.000000
0
ARC
5
acb
100
AcDbEntity
8
1
100
AcDbCircle
6
CONTINUOUS
62
5
10
144.500000
20
170.500000
40
1.500000
100
AcDbArc
50
179.999998
51
-89.999999
0
POLYLINE
5
acc
100
AcDbEntity
8
1
6
CONTINUOUS
62
5
100
AcDb2dPolyline
66
1
10
0.0
20
0.0
30
0.0
70
0
0
VERTEX
5
acd
100
AcDbEntity
8
1
100
AcDbVertex
100
AcDb2dVertex
62
5
10
143.000000
20
170.500000
0
VERTEX
5
ace
100
AcDbEntity
8
1
100
AcDbVertex
100
AcDb2dVertex
62
5
10
143.000000
20
173.500000
0
VERTEX
5
acf
100
AcDbEntity
8
1
100
AcDbVertex
100
AcDb2dVertex
62
5
10
143.105263
20
175.500000
0
VERTEX
5
ad0
100
AcDbEntity
8
1
100
AcDbVertex
100
AcDb2dVertex
62
5
10
143.105263
20
237.500000
0
VERTEX
5
ad1
100
AcDbEntity
8
1
100
AcDbVertex
100
AcDb2dVertex
62
5
10
143.000000
20
239.500000
0
VERTEX
5
ad2
100
AcDbEntity
8
1
100
AcDbVertex
100
AcDb2dVertex
62
5
10
143.000000
20
242.500000
0
SEQEND
5
ad3
100
AcDbEntity
8
1
0
ARC
5
ad4
100
AcDbEntity
8
1
100
AcDbCircle
6
CONTINUOUS
62
5
10
144.500000
20
242.500000
40
1.500000
100
AcDbArc
50
89.999999
51
179.999998
0
LINE
5
ad5
100
AcDbEntity
8
1
100
AcDbLine
6
CONTINUOUS
62
5
10
144.500000
20
244.000000
11
144.500000
21
246.500000
0
POLYLINE
5
ad6
100
AcDbEntity
8
1
6
DOT2
62
5
100
AcDb2dPolyline
66
1
10
0.0
20
0.0
30
0.0
70
0
0
VERTEX
5
ad7
100
AcDbEntity
8
1
100
AcDbVertex
100
AcDb2dVertex
62
5
10
340.000000
20
10.000000
0
VERTEX
5
ad8
100
AcDbEntity
8
1
100
AcDbVertex
100
AcDb2dVertex
62
5
10
340.000000
20
0.000000
0
VERTEX
5
ad9
100
AcDbEntity
8
1
100
AcDbVertex
100
AcDb2dVertex
62
5
10
330.000000
20
0.000000
0
SEQEND
5
ada
100
AcDbEntity
8
1
0
POLYLINE
5
adb
100
AcDbEntity
8
1
6
DOT2
62
5
100
AcDb2dPolyline
66
1
10
0.0
20
0.0
30
0.0
70
0
0
VERTEX
5
adc
100
AcDbEntity
8
1
100
AcDbVertex
100
AcDb2dVertex
62
5
10
10.000000
20
0.000000
0
VERTEX
5
add
100
AcDbEntity
8
1
100
AcDbVertex
100
AcDb2dVertex
62
5
10
-0.000000
20
0.000000
0
VERTEX
5
ade
100
AcDbEntity
8
1
100
AcDbVertex
100
AcDb2dVertex
62
5
10
-0.000000
20
10.000000
0
SEQEND
5
adf
100
AcDbEntity
8
1
0
POLYLINE
5
ae0
100
AcDbEntity
8
1
6
DOT2
62
5
100
AcDb2dPolyline
66
1
10
0.0
20
0.0
30
0.0
70
0
0
VERTEX
5
ae1
100
AcDbEntity
8
1
100
AcDbVertex
100
AcDb2dVertex
62
5
10
-0.000000
20
350.000000
0
VERTEX
5
ae2
100
AcDbEntity
8
1
100
AcDbVertex
100
AcDb2dVertex
62
5
10
-0.000000
20
360.000000
0
VERTEX
5
ae3
100
AcDbEntity
8
1
100
AcDbVertex
100
AcDb2dVertex
62
5
10
10.000000
20
360.000000
0
SEQEND
5
ae4
100
AcDbEntity
8
1
0
POLYLINE
5
ae5
100
AcDbEntity
8
1
6
DOT2
62
5
100
AcDb2dPolyline
66
1
10
0.0
20
0.0
30
0.0
70
0
0
VERTEX
5
ae6
100
AcDbEntity
8
1
100
AcDbVertex
100
AcDb2dVertex
62
5
10
330.000000
20
360.000000
0
VERTEX
5
ae7
100
AcDbEntity
8
1
100
AcDbVertex
100
AcDb2dVertex
62
5
10
340.000000
20
360.000000
0
VERTEX
5
ae8
100
AcDbEntity
8
1
100
AcDbVertex
100
AcDb2dVertex
62
5
10
340.000000
20
350.000000
0
SEQEND
5
ae9
100
AcDbEntity
8
1
0
ARC
5
aea
100
AcDbEntity
8
1
100
AcDbCircle
6
CONTINUOUS
62
5
10
194.500000
20
166.500000
40
1.000000
100
AcDbArc
50
179.999998
51
0.000000
0
LINE
5
aeb
100
AcDbEntity
8
1
100
AcDbLine
6
CONTINUOUS
62
5
10
193.500000
20
166.500000
11
193.500000
21
168.500000
0
ARC
5
aec
100
AcDbEntity
8
1
100
AcDbCircle
6
CONTINUOUS
62
5
10
195.000000
20
168.500000
40
1.500000
100
AcDbArc
50
119.277612
51
179.999998
0
POLYLINE
5
aed
100
AcDbEntity
8
1
6
CONTINUOUS
62
5
100
AcDb2dPolyline
66
1
10
0.0
20
0.0
30
0.0
70
0
0
VERTEX
5
aee
100
AcDbEntity
8
1
100
AcDbVertex
100
AcDb2dVertex
62
5
10
194.266437
20
169.808391
0
VERTEX
5
aef
100
AcDbEntity
8
1
100
AcDbVertex
100
AcDb2dVertex
62
5
10
195.500205
20
170.500000
0
VERTEX
5
af0
100
AcDbEntity
8
1
100
AcDbVertex
100
AcDb2dVertex
62
5
10
195.500000
20
173.500000
0
VERTEX
5
af1
100
AcDbEntity
8
1
100
AcDbVertex
100
AcDb2dVertex
62
5
10
195.359155
20
175.500000
0
VERTEX
5
af2
100
AcDbEntity
8
1
100
AcDbVertex
100
AcDb2dVertex
62
5
10
195.359155
20
237.500000
0
VERTEX
5
af3
100
AcDbEntity
8
1
100
AcDbVertex
100
AcDb2dVertex
62
5
10
195.500000
20
239.500000
0
VERTEX
5
af4
100
AcDbEntity
8
1
100
AcDbVertex
100
AcDb2dVertex
62
5
10
195.500000
20
242.499848
0
VERTEX
5
af5
100
AcDbEntity
8
1
100
AcDbVertex
100
AcDb2dVertex
62
5
10
194.266437
20
243.191609
0
SEQEND
5
af6
100
AcDbEntity
8
1
0
ARC
5
af7
100
AcDbEntity
8
1
100
AcDbCircle
6
CONTINUOUS
62
5
10
195.000000
20
244.500000
40
1.500000
100
AcDbArc
50
179.999998
51
-119.277612
0
LINE
5
af8
100
AcDbEntity
8
1
100
AcDbLine
6
CONTINUOUS
62
5
10
193.500000
20
244.500000
11
193.500000
21
246.500000
0
ARC
5
af9
100
AcDbEntity
8
1
100
AcDbCircle
6
CONTINUOUS
62
5
10
194.500000
20
246.500000
40
1.000000
100
AcDbArc
50
-0.000000
51
-179.999998
0
LINE
5
afa
100
AcDbEntity
8
1
100
AcDbLine
6
CONTINUOUS
62
5
10
195.500000
20
246.500000
11
195.500000
21
244.000000
0
ARC
5
afb
100
AcDbEntity
8
1
100
AcDbCircle
6
CONTINUOUS
62
5
10
195.500000
20
242.500000
40
1.500000
100
AcDbArc
50
0.000000
51
89.999999
0
POLYLINE
5
afc
100
AcDbEntity
8
1
6
CONTINUOUS
62
5
100
AcDb2dPolyline
66
1
10
0.0
20
0.0
30
0.0
70
0
0
VERTEX
5
afd
100
AcDbEntity
8
1
100
AcDbVertex
100
AcDb2dVertex
62
5
10
197.000000
20
242.500000
0
VERTEX
5
afe
100
AcDbEntity
8
1
100
AcDbVertex
100
AcDb2dVertex
62
5
10
197.000000
20
239.500000
0
VERTEX
5
aff
100
AcDbEntity
8
1
100
AcDbVertex
100
AcDb2dVertex
62
5
10
196.894737
20
237.500000
0
VERTEX
5
b00
100
AcDbEntity
8
1
100
AcDbVertex
100
AcDb2dVertex
62
5
10
196.894737
20
175.500000
0
VERTEX
5
b01
100
AcDbEntity
8
1
100
AcDbVertex
100
AcDb2dVertex
62
5
10
197.000000
20
173.500000
0
VERTEX
5
b02
100
AcDbEntity
8
1
100
AcDbVertex
100
AcDb2dVertex
62
5
10
197.000000
20
170.500000
0
SEQEND
5
b03
100
AcDbEntity
8
1
0
ARC
5
b04
100
AcDbEntity
8
1
100
AcDbCircle
6
CONTINUOUS
62
5
10
195.500000
20
170.500000
40
1.500000
100
AcDbArc
50
-89.999999
51
0.000000
0
LINE
5
b05
100
AcDbEntity
8
1
100
AcDbLine
6
CONTINUOUS
62
5
10
195.500000
20
169.000000
11
195.500000
21
166.500000
0
POLYLINE
5
b06
100
AcDbEntity
8
1
6
DOT2
62
5
100
AcDb2dPolyline
66
1
10
0.0
20
0.0
30
0.0
70
0
0
VERTEX
5
b07
100
AcDbEntity
8
1
100
AcDbVertex
100
AcDb2dVertex
62
5
10
340.000000
20
10.000000
0
VERTEX
5
b08
100
AcDbEntity
8
1
100
AcDbVertex
100
AcDb2dVertex
62
5
10
340.000000
20
0.000000
0
VERTEX
5
b09
100
AcDbEntity
8
1
100
AcDbVertex
100
AcDb2dVertex
62
5
10
330.000000
20
0.000000
0
SEQEND
5
b0a
100
AcDbEntity
8
1
0
POLYLINE
5
b0b
100
AcDbEntity
8
1
6
DOT2
62
5
100
AcDb2dPolyline
66
1
10
0.0
20
0.0
30
0.0
70
0
0
VERTEX
5
b0c
100
AcDbEntity
8
1
100
AcDbVertex
100
AcDb2dVertex
62
5
10
10.000000
20
0.000000
0
VERTEX
5
b0d
100
AcDbEntity
8
1
100
AcDbVertex
100
AcDb2dVertex
62
5
10
0.000000
20
0.000000
0
VERTEX
5
b0e
100
AcDbEntity
8
1
100
AcDbVertex
100
AcDb2dVertex
62
5
10
0.000000
20
10.000000
0
SEQEND
5
b0f
100
AcDbEntity
8
1
0
POLYLINE
5
b10
100
AcDbEntity
8
1
6
DOT2
62
5
100
AcDb2dPolyline
66
1
10
0.0
20
0.0
30
0.0
70
0
0
VERTEX
5
b11
100
AcDbEntity
8
1
100
AcDbVertex
100
AcDb2dVertex
62
5
10
0.000000
20
350.000000
0
VERTEX
5
b12
100
AcDbEntity
8
1
100
AcDbVertex
100
AcDb2dVertex
62
5
10
0.000000
20
360.000000
0
VERTEX
5
b13
100
AcDbEntity
8
1
100
AcDbVertex
100
AcDb2dVertex
62
5
10
10.000000
20
360.000000
0
SEQEND
5
b14
100
AcDbEntity
8
1
0
POLYLINE
5
b15
100
AcDbEntity
8
1
6
DOT2
62
5
100
AcDb2dPolyline
66
1
10
0.0
20
0.0
30
0.0
70
0
0
VERTEX
5
b16
100
AcDbEntity
8
1
100
AcDbVertex
100
AcDb2dVertex
62
5
10
330.000000
20
360.000000
0
VERTEX
5
b17
100
AcDbEntity
8
1
100
AcDbVertex
100
AcDb2dVertex
62
5
10
340.000000
20
360.000000
0
VERTEX
5
b18
100
AcDbEntity
8
1
100
AcDbVertex
100
AcDb2dVertex
62
5
10
340.000000
20
350.000000
0
SEQEND
5
b19
100
AcDbEntity
8
1
0
POLYLINE
5
b1a
100
AcDbEntity
8
1
6
CONTINUOUS
62
5
100
AcDb2dPolyline
66
1
10
0.0
20
0.0
30
0.0
70
1
0
VERTEX
5
b1b
100
AcDbEntity
8
1
100
AcDbVertex
100
AcDb2dVertex
62
5
10
10.000000
20
10.000000
0
VERTEX
5
b1c
100
AcDbEntity
8
1
100
AcDbVertex
100
AcDb2dVertex
62
5
10
10.000000
20
350.000000
0
VERTEX
5
b1d
100
AcDbEntity
8
1
100
AcDbVertex
100
AcDb2dVertex
62
5
10
330.000000
20
350.000000
0
VERTEX
5
b1e
100
AcDbEntity
8
1
100
AcDbVertex
100
AcDb2dVertex
62
5
10
330.000000
20
10.000000
0
VERTEX
5
b1f
100
AcDbEntity
8
1
100
AcDbVertex
100
AcDb2dVertex
62
5
10
10.000000
20
10.000000
0
SEQEND
5
b20
100
AcDbEntity
8
1
0
POLYLINE
5
b21
100
AcDbEntity
8
1
6
CONTINUOUS
62
5
100
AcDb2dPolyline
66
1
10
0.0
20
0.0
30
0.0
70
1
0
VERTEX
5
b22
100
AcDbEntity
8
1
100
AcDbVertex
100
AcDb2dVertex
62
5
10
10.000000
20
10.000000
0
VERTEX
5
b23
100
AcDbEntity
8
1
100
AcDbVertex
100
AcDb2dVertex
62
5
10
10.000000
20
350.000000
0
VERTEX
5
b24
100
AcDbEntity
8
1
100
AcDbVertex
100
AcDb2dVertex
62
5
10
330.000000
20
350.000000
0
VERTEX
5
b25
100
AcDbEntity
8
1
100
AcDbVertex
100
AcDb2dVertex
62
5
10
330.000000
20
10.000000
0
VERTEX
5
b26
100
AcDbEntity
8
1
100
AcDbVertex
100
AcDb2dVertex
62
5
10
10.000000
20
10.000000
0
SEQEND
5
b27
100
AcDbEntity
8
1
0
DIMENSION
5
b28
100
AcDbEntity
8
1
62
11
100
AcDbDimension
2
*D1
10
2588.197186
20
335.987481
11
2577.699702
21
335.987481
70
0
100
AcDbAlignedDimension
13
2567.202218
23
349.487481
14
2588.197186
24
349.487481
50
0
100
AcDbRotatedDimension
0
DIMENSION
5
b29
100
AcDbEntity
8
1
62
11
100
AcDbDimension
2
*D2
10
2590.197186
20
332.987481
11
2577.699702
21
332.987481
70
0
100
AcDbAlignedDimension
13
2565.202218
23
345.916592
14
2590.197186
24
344.987481
50
0
100
AcDbRotatedDimension
0
DIMENSION
5
b2a
100
AcDbEntity
8
1
62
11
100
AcDbDimension
2
*D3
10
2572.202218
20
364.987481
11
2574.629873
21
362.430672
70
4
100
AcDbRadialDimension
15
2566.473081
25
369.009544
0
DIMENSION
5
b2b
100
AcDbEntity
8
1
62
11
100
AcDbDimension
2
*D4
10
2572.202218
20
364.987481
11
2573.956849
21
363.170292
70
4
100
AcDbRadialDimension
15
2569.888034
25
369.419699
0
DIMENSION
5
b2c
100
AcDbEntity
8
1
62
11
100
AcDbDimension
2
*D5
10
2593.197186
20
340.237481
11
2593.197186
21
355.112481
70
0
100
AcDbAlignedDimension
13
2582.197186
23
369.987481
14
2582.197186
24
340.237481
50
90
100
AcDbRotatedDimension
0
DIMENSION
5
b2d
100
AcDbEntity
8
1
62
11
100
AcDbDimension
2
*D6
10
2596.197186
20
337.987481
11
2596.197186
21
354.987481
70
0
100
AcDbAlignedDimension
13
2583.197186
23
371.987481
14
2583.197186
24
337.987481
50
90
100
AcDbRotatedDimension
0
DIMENSION
5
b2e
100
AcDbEntity
8
1
62
11
100
AcDbDimension
2
*D7
10
2583.199796
20
365.051163
11
2582.525090
21
363.869824
70
4
100
AcDbRadialDimension
15
2585.700637
25
367.845496
0
DIMENSION
5
b2f
100
AcDbEntity
8
1
62
11
100
AcDbDimension
2
*D8
10
2587.866457
20
336.467039
11
2577.368973
21
336.467039
70
0
100
AcDbAlignedDimension
13
2566.871489
23
349.967039
14
2587.866457
24
349.967039
50
0
100
AcDbRotatedDimension
0
DIMENSION
5
b30
100
AcDbEntity
8
1
62
11
100
AcDbDimension
2
*D9
10
2589.866457
20
333.467039
11
2577.368973
21
333.467039
70
0
100
AcDbAlignedDimension
13
2564.871489
23
346.396149
14
2589.866457
24
345.467039
50
0
100
AcDbRotatedDimension
0
DIMENSION
5
b31
100
AcDbEntity
8
1
62
11
100
AcDbDimension
2
*D10
10
2571.871489
20
365.467039
11
2569.609979
21
363.021418
70
4
100
AcDbRadialDimension
15
2566.142352
25
369.489102
0
DIMENSION
5
b32
100
AcDbEntity
8
1
62
11
100
AcDbDimension
2
*D11
10
2571.871489
20
365.467039
11
2570.276870
21
363.766574
70
4
100
AcDbRadialDimension
15
2569.557305
25
369.899257
0
DIMENSION
5
b33
100
AcDbEntity
8
1
62
11
100
AcDbDimension
2
*D12
10
2592.866457
20
340.717039
11
2592.866457
21
355.592039
70
0
100
AcDbAlignedDimension
13
2581.866457
23
370.467039
14
2581.866457
24
340.717039
50
90
100
AcDbRotatedDimension
0
DIMENSION
5
b34
100
AcDbEntity
8
1
62
11
100
AcDbDimension
2
*D13
10
2595.866457
20
338.467039
11
2595.866457
21
355.467039
70
0
100
AcDbAlignedDimension
13
2582.866457
23
372.467039
14
2582.866457
24
338.467039
50
90
100
AcDbRotatedDimension
0
DIMENSION
5
b35
100
AcDbEntity
8
1
62
11
100
AcDbDimension
2
*D14
10
2582.869067
20
365.530721
11
2582.194361
21
364.349381
70
4
100
AcDbRadialDimension
15
2585.369908
25
368.325053
0
DIMENSION
5
b36
100
AcDbEntity
8
1
62
11
100
AcDbDimension
2
*D15
10
2626.282043
20
329.987481
11
2631.035491
21
329.987481
70
0
100
AcDbAlignedDimension
13
2635.788939
23
338.987481
14
2626.282043
24
354.987481
50
0
100
AcDbRotatedDimension
0
DIMENSION
5
b37
100
AcDbEntity
8
1
62
11
100
AcDbDimension
2
*D16
10
2634.788939
20
335.987481
11
2635.288939
21
335.987481
70
0
100
AcDbAlignedDimension
13
2635.788939
23
338.987481
14
2634.788939
24
335.987481
50
0
100
AcDbRotatedDimension
0
DIMENSION
5
b38
100
AcDbEntity
8
1
62
11
100
AcDbDimension
2
*D17
10
2628.788939
20
332.987481
11
2632.288939
21
332.987481
70
0
100
AcDbAlignedDimension
13
2635.788939
23
338.987481
14
2628.788939
24
342.487481
50
0
100
AcDbRotatedDimension
0
DIMENSION
5
b39
100
AcDbEntity
8
1
62
11
100
AcDbDimension
2
*D18
10
2634.788939
20
370.987481
11
2632.360776
21
373.558674
70
4
100
AcDbRadialDimension
15
2634.115914
25
371.727101
0
DIMENSION
5
b3a
100
AcDbEntity
8
1
62
11
100
AcDbDimension
2
*D19
10
2644.788939
20
341.487481
11
2644.788939
21
354.987481
70
0
100
AcDbAlignedDimension
13
2635.788939
23
368.487481
14
2635.788939
24
341.487481
50
90
100
AcDbRotatedDimension
0
DIMENSION
5
b3b
100
AcDbEntity
8
1
62
11
100
AcDbDimension
2
*D20
10
2641.788939
20
349.479032
11
2641.788939
21
354.979032
70
0
100
AcDbAlignedDimension
13
2635.788939
23
360.479032
14
2635.788939
24
349.479032
50
90
100
AcDbRotatedDimension
0
DIMENSION
5
b3c
100
AcDbEntity
8
1
62
11
100
AcDbDimension
2
*D21
10
2625.951314
20
330.467039
11
2630.704762
21
330.467039
70
0
100
AcDbAlignedDimension
13
2635.458210
23
339.467039
14
2625.951314
24
355.467039
50
0
100
AcDbRotatedDimension
0
DIMENSION
5
b3d
100
AcDbEntity
8
1
62
11
100
AcDbDimension
2
*D22
10
2634.458210
20
336.467039
11
2634.958210
21
336.467039
70
0
100
AcDbAlignedDimension
13
2635.458210
23
339.467039
14
2634.458210
24
336.467039
50
0
100
AcDbRotatedDimension
0
DIMENSION
5
b3e
100
AcDbEntity
8
1
62
11
100
AcDbDimension
2
*D23
10
2628.458210
20
333.467039
11
2631.958210
21
333.467039
70
0
100
AcDbAlignedDimension
13
2635.458210
23
339.467039
14
2628.458210
24
342.967039
50
0
100
AcDbRotatedDimension
0
DIMENSION
5
b3f
100
AcDbEntity
8
1
62
11
100
AcDbDimension
2
*D24
10
2634.458210
20
371.467039
11
2632.030046
21
374.038231
70
4
100
AcDbRadialDimension
15
2633.785185
25
372.206659
0
DIMENSION
5
b40
100
AcDbEntity
8
1
62
11
100
AcDbDimension
2
*D25
10
2644.458210
20
341.967039
11
2644.458210
21
355.467039
70
0
100
AcDbAlignedDimension
13
2635.458210
23
368.967039
14
2635.458210
24
341.967039
50
90
100
AcDbRotatedDimension
0
DIMENSION
5
b41
100
AcDbEntity
8
1
62
11
100
AcDbDimension
2
*D26
10
2641.458210
20
349.958590
11
2641.458210
21
355.458590
70
0
100
AcDbAlignedDimension
13
2635.458210
23
360.958590
14
2635.458210
24
349.958590
50
90
100
AcDbRotatedDimension
0
DIMENSION
5
b42
100
AcDbEntity
8
1
62
11
100
AcDbDimension
2
*D27
10
2636.683155
20
496.874981
11
2624.185671
21
496.874981
70
0
100
AcDbAlignedDimension
13
2611.688186
23
509.804092
14
2636.683155
24
508.874981
50
0
100
AcDbRotatedDimension
0
DIMENSION
5
b43
100
AcDbEntity
8
1
62
11
100
AcDbDimension
2
*D28
10
2634.683155
20
499.874981
11
2624.185671
21
499.874981
70
0
100
AcDbAlignedDimension
13
2613.688186
23
513.374981
14
2634.683155
24
513.374981
50
0
100
AcDbRotatedDimension
0
DIMENSION
5
b44
100
AcDbEntity
8
1
62
11
100
AcDbDimension
2
*D29
10
2618.688186
20
528.874981
11
2616.260531
21
531.626673
70
4
100
AcDbRadialDimension
15
2612.959050
25
532.897044
0
DIMENSION
5
b45
100
AcDbEntity
8
1
62
11
100
AcDbDimension
2
*D30
10
2618.688186
20
528.874981
11
2616.933556
21
530.887053
70
4
100
AcDbRadialDimension
15
2616.374003
25
533.307199
0
DIMENSION
5
b46
100
AcDbEntity
8
1
62
11
100
AcDbDimension
2
*D31
10
2639.683155
20
504.124981
11
2639.683155
21
518.999981
70
0
100
AcDbAlignedDimension
13
2628.683155
23
533.874981
14
2628.683155
24
504.124981
50
90
100
AcDbRotatedDimension
0
DIMENSION
5
b47
100
AcDbEntity
8
1
62
11
100
AcDbDimension
2
*D32
10
2642.683155
20
501.874981
11
2642.683155
21
518.874981
70
0
100
AcDbAlignedDimension
13
2629.683155
23
535.874981
14
2629.683155
24
501.874981
50
90
100
AcDbRotatedDimension
0
DIMENSION
5
b48
100
AcDbEntity
8
1
62
11
100
AcDbDimension
2
*D33
10
2629.685765
20
528.938663
11
2629.011059
21
527.757324
70
4
100
AcDbRadialDimension
15
2632.186606
25
531.732996
0
DIMENSION
5
b49
100
AcDbEntity
8
1
62
11
100
AcDbDimension
2
*D34
10
2672.768012
20
493.874981
11
2677.521460
21
493.874981
70
0
100
AcDbAlignedDimension
13
2682.274908
23
502.874981
14
2672.768012
24
518.874981
50
0
100
AcDbRotatedDimension
0
DIMENSION
5
b4a
100
AcDbEntity
8
1
62
11
100
AcDbDimension
2
*D35
10
2675.274908
20
496.874981
11
2678.774908
21
496.874981
70
0
100
AcDbAlignedDimension
13
2682.274908
23
502.874981
14
2675.274908
24
506.374981
50
0
100
AcDbRotatedDimension
0
DIMENSION
5
b4b
100
AcDbEntity
8
1
62
11
100
AcDbDimension
2
*D36
10
2681.274908
20
499.874981
11
2681.774908
21
499.874981
70
0
100
AcDbAlignedDimension
13
2682.274908
23
502.874981
14
2681.274908
24
499.874981
50
0
100
AcDbRotatedDimension
0
DIMENSION
5
b4c
100
AcDbEntity
8
1
62
11
100
AcDbDimension
2
*D37
10
2681.274908
20
534.874981
11
2678.846744
21
537.446174
70
4
100
AcDbRadialDimension
15
2680.601883
25
535.614601
0
DIMENSION
5
b4d
100
AcDbEntity
8
1
62
11
100
AcDbDimension
2
*D38
10
2691.274908
20
505.374981
11
2691.274908
21
518.874981
70
0
100
AcDbAlignedDimension
13
2682.274908
23
532.374981
14
2682.274908
24
505.374981
50
90
100
AcDbRotatedDimension
0
DIMENSION
5
b4e
100
AcDbEntity
8
1
62
11
100
AcDbDimension
2
*D39
10
2688.274908
20
513.366532
11
2688.274908
21
518.866532
70
0
100
AcDbAlignedDimension
13
2682.274908
23
524.366532
14
2682.274908
24
513.366532
50
90
100
AcDbRotatedDimension
0
DIMENSION
5
b4f
100
AcDbEntity
8
1
62
11
100
AcDbDimension
2
*D40
10
2987.392212
20
377.177584
11
2976.894728
21
377.177584
70
0
100
AcDbAlignedDimension
13
2966.397243
23
390.677584
14
2987.392212
24
390.677584
50
0
100
AcDbRotatedDimension
0
DIMENSION
5
b50
100
AcDbEntity
8
1
62
11
100
AcDbDimension
2
*D41
10
2989.392212
20
374.177584
11
2976.894728
21
374.177584
70
0
100
AcDbAlignedDimension
13
2964.397243
23
387.106695
14
2989.392212
24
386.177584
50
0
100
AcDbRotatedDimension
0
DIMENSION
5
b51
100
AcDbEntity
8
1
62
11
100
AcDbDimension
2
*D42
10
2971.397243
20
406.177584
11
2968.969588
21
408.929276
70
4
100
AcDbRadialDimension
15
2965.668107
25
410.199647
0
DIMENSION
5
b52
100
AcDbEntity
8
1
62
11
100
AcDbDimension
2
*D43
10
2971.397243
20
406.177584
11
2969.642613
21
408.189656
70
4
100
AcDbRadialDimension
15
2969.083060
25
410.609802
0
DIMENSION
5
b53
100
AcDbEntity
8
1
62
11
100
AcDbDimension
2
*D44
10
2992.392212
20
381.427584
11
2992.392212
21
396.302584
70
0
100
AcDbAlignedDimension
13
2981.392212
23
411.177584
14
2981.392212
24
381.427584
50
90
100
AcDbRotatedDimension
0
DIMENSION
5
b54
100
AcDbEntity
8
1
62
11
100
AcDbDimension
2
*D45
10
2995.392212
20
379.177584
11
2995.392212
21
396.177584
70
0
100
AcDbAlignedDimension
13
2982.392212
23
413.177584
14
2982.392212
24
379.177584
50
90
100
AcDbRotatedDimension
0
DIMENSION
5
b55
100
AcDbEntity
8
1
62
11
100
AcDbDimension
2
*D46
10
2982.394821
20
406.241266
11
2981.720116
21
405.059927
70
4
100
AcDbRadialDimension
15
2984.895663
25
409.035599
0
DIMENSION
5
b56
100
AcDbEntity
8
1
62
11
100
AcDbDimension
2
*D47
10
2987.061483
20
377.657142
11
2976.563998
21
377.657142
70
0
100
AcDbAlignedDimension
13
2966.066514
23
391.157142
14
2987.061483
24
391.157142
50
0
100
AcDbRotatedDimension
0
DIMENSION
5
b57
100
AcDbEntity
8
1
62
11
100
AcDbDimension
2
*D48
10
2989.061483
20
374.657142
11
2976.563998
21
374.657142
70
0
100
AcDbAlignedDimension
13
2964.066514
23
387.586252
14
2989.061483
24
386.657142
50
0
100
AcDbRotatedDimension
0
DIMENSION
5
b58
100
AcDbEntity
8
1
62
11
100
AcDbDimension
2
*D49
10
2971.066514
20
406.657142
11
2968.805004
21
404.211521
70
4
100
AcDbRadialDimension
15
2965.337377
25
410.679205
0
DIMENSION
5
b59
100
AcDbEntity
8
1
62
11
100
AcDbDimension
2
*D50
10
2971.066514
20
406.657142
11
2969.471895
21
404.956677
70
4
100
AcDbRadialDimension
15
2968.752331
25
411.089360
0
DIMENSION
5
b5a
100
AcDbEntity
8
1
62
11
100
AcDbDimension
2
*D51
10
2992.061483
20
381.907142
11
2992.061483
21
396.782142
70
0
100
AcDbAlignedDimension
13
2981.061483
23
411.657142
14
2981.061483
24
381.907142
50
90
100
AcDbRotatedDimension
0
DIMENSION
5
b5b
100
AcDbEntity
8
1
62
11
100
AcDbDimension
2
*D52
10
2995.061483
20
379.657142
11
2995.061483
21
396.657142
70
0
100
AcDbAlignedDimension
13
2982.061483
23
413.657142
14
2982.061483
24
379.657142
50
90
100
AcDbRotatedDimension
0
DIMENSION
5
b5c
100
AcDbEntity
8
1
62
11
100
AcDbDimension
2
*D53
10
2982.064092
20
406.720824
11
2981.389386
21
405.539484
70
4
100
AcDbRadialDimension
15
2984.564934
25
409.515156
0
DIMENSION
5
b5d
100
AcDbEntity
8
1
62
11
100
AcDbDimension
2
*D54
10
3025.477069
20
371.177584
11
3030.230517
21
371.177584
70
0
100
AcDbAlignedDimension
13
3034.983965
23
380.177584
14
3025.477069
24
396.177584
50
0
100
AcDbRotatedDimension
0
DIMENSION
5
b5e
100
AcDbEntity
8
1
62
11
100
AcDbDimension
2
*D55
10
3033.983965
20
377.177584
11
3034.483965
21
377.177584
70
0
100
AcDbAlignedDimension
13
3034.983965
23
380.177584
14
3033.983965
24
377.177584
50
0
100
AcDbRotatedDimension
0
DIMENSION
5
b5f
100
AcDbEntity
8
1
62
11
100
AcDbDimension
2
*D56
10
3027.983965
20
374.177584
11
3031.483965
21
374.177584
70
0
100
AcDbAlignedDimension
13
3034.983965
23
380.177584
14
3027.983965
24
383.677584
50
0
100
AcDbRotatedDimension
0
DIMENSION
5
b60
100
AcDbEntity
8
1
62
11
100
AcDbDimension
2
*D57
10
3033.983965
20
412.177584
11
3031.555801
21
414.748777
70
4
100
AcDbRadialDimension
15
3033.310940
25
412.917204
0
DIMENSION
5
b61
100
AcDbEntity
8
1
62
11
100
AcDbDimension
2
*D58
10
3043.983965
20
382.677584
11
3043.983965
21
396.177584
70
0
100
AcDbAlignedDimension
13
3034.983965
23
409.677584
14
3034.983965
24
382.677584
50
90
100
AcDbRotatedDimension
0
DIMENSION
5
b62
100
AcDbEntity
8
1
62
11
100
AcDbDimension
2
*D59
10
3040.983965
20
390.669135
11
3040.983965
21
396.169135
70
0
100
AcDbAlignedDimension
13
3034.983965
23
401.669135
14
3034.983965
24
390.669135
50
90
100
AcDbRotatedDimension
0
DIMENSION
5
b63
100
AcDbEntity
8
1
62
11
100
AcDbDimension
2
*D60
10
3025.146340
20
371.657142
11
3029.899788
21
371.657142
70
0
100
AcDbAlignedDimension
13
3034.653235
23
380.657142
14
3025.146340
24
396.657142
50
0
100
AcDbRotatedDimension
0
DIMENSION
5
b64
100
AcDbEntity
8
1
62
11
100
AcDbDimension
2
*D61
10
3033.653235
20
377.657142
11
3034.153235
21
377.657142
70
0
100
AcDbAlignedDimension
13
3034.653235
23
380.657142
14
3033.653235
24
377.657142
50
0
100
AcDbRotatedDimension
0
DIMENSION
5
b65
100
AcDbEntity
8
1
62
11
100
AcDbDimension
2
*D62
10
3027.653235
20
374.657142
11
3031.153235
21
374.657142
70
0
100
AcDbAlignedDimension
13
3034.653235
23
380.657142
14
3027.653235
24
384.157142
50
0
100
AcDbRotatedDimension
0
DIMENSION
5
b66
100
AcDbEntity
8
1
62
11
100
AcDbDimension
2
*D63
10
3033.653235
20
412.657142
11
3031.225072
21
415.228334
70
4
100
AcDbRadialDimension
15
3032.980211
25
413.396762
0
DIMENSION
5
b67
100
AcDbEntity
8
1
62
11
100
AcDbDimension
2
*D64
10
3043.653235
20
383.157142
11
3043.653235
21
396.657142
70
0
100
AcDbAlignedDimension
13
3034.653235
23
410.157142
14
3034.653235
24
383.157142
50
90
100
AcDbRotatedDimension
0
DIMENSION
5
b68
100
AcDbEntity
8
1
62
11
100
AcDbDimension
2
*D65
10
3040.653235
20
391.148693
11
3040.653235
21
396.648693
70
0
100
AcDbAlignedDimension
13
3034.653235
23
402.148693
14
3034.653235
24
391.148693
50
90
100
AcDbRotatedDimension
0
DIMENSION
5
b69
100
AcDbEntity
8
1
62
11
100
AcDbDimension
2
*D66
10
3035.878181
20
538.065084
11
3023.380696
21
538.065084
70
0
100
AcDbAlignedDimension
13
3010.883212
23
550.994195
14
3035.878181
24
550.065084
50
0
100
AcDbRotatedDimension
0
DIMENSION
5
b6a
100
AcDbEntity
8
1
62
11
100
AcDbDimension
2
*D67
10
3033.878181
20
541.065084
11
3023.380696
21
541.065084
70
0
100
AcDbAlignedDimension
13
3012.883212
23
554.565084
14
3033.878181
24
554.565084
50
0
100
AcDbRotatedDimension
0
DIMENSION
5
b6b
100
AcDbEntity
8
1
62
11
100
AcDbDimension
2
*D68
10
3017.883212
20
570.065084
11
3015.455557
21
572.816776
70
4
100
AcDbRadialDimension
15
3012.154075
25
574.087147
0
DIMENSION
5
b6c
100
AcDbEntity
8
1
62
11
100
AcDbDimension
2
*D69
10
3017.883212
20
570.065084
11
3016.128581
21
572.077156
70
4
100
AcDbRadialDimension
15
3015.569029
25
574.497302
0
DIMENSION
5
b6d
100
AcDbEntity
8
1
62
11
100
AcDbDimension
2
*D70
10
3038.878181
20
545.315084
11
3038.878181
21
560.190084
70
0
100
AcDbAlignedDimension
13
3027.878180
23
575.065084
14
3027.878180
24
545.315084
50
90
100
AcDbRotatedDimension
0
DIMENSION
5
b6e
100
AcDbEntity
8
1
62
11
100
AcDbDimension
2
*D71
10
3041.878181
20
543.065084
11
3041.878181
21
560.065084
70
0
100
AcDbAlignedDimension
13
3028.878181
23
577.065084
14
3028.878181
24
543.065084
50
90
100
AcDbRotatedDimension
0
DIMENSION
5
b6f
100
AcDbEntity
8
1
62
11
100
AcDbDimension
2
*D72
10
3028.880790
20
570.128766
11
3028.206084
21
568.947427
70
4
100
AcDbRadialDimension
15
3031.381631
25
572.923099
0
DIMENSION
5
b70
100
AcDbEntity
8
1
62
11
100
AcDbDimension
2
*D73
10
3071.963037
20
535.065084
11
3076.716485
21
535.065084
70
0
100
AcDbAlignedDimension
13
3081.469933
23
544.065084
14
3071.963037
24
560.065084
50
0
100
AcDbRotatedDimension
0
DIMENSION
5
b71
100
AcDbEntity
8
1
62
11
100
AcDbDimension
2
*D74
10
3074.469933
20
538.065084
11
3077.969933
21
538.065084
70
0
100
AcDbAlignedDimension
13
3081.469933
23
544.065084
14
3074.469933
24
547.565084
50
0
100
AcDbRotatedDimension
0
DIMENSION
5
b72
100
AcDbEntity
8
1
62
11
100
AcDbDimension
2
*D75
10
3080.469933
20
541.065084
11
3080.969933
21
541.065084
70
0
100
AcDbAlignedDimension
13
3081.469933
23
544.065084
14
3080.469933
24
541.065084
50
0
100
AcDbRotatedDimension
0
DIMENSION
5
b73
100
AcDbEntity
8
1
62
11
100
AcDbDimension
2
*D76
10
3080.469933
20
576.065084
11
3078.041770
21
578.636277
70
4
100
AcDbRadialDimension
15
3079.796909
25
576.804704
0
DIMENSION
5
b74
100
AcDbEntity
8
1
62
11
100
AcDbDimension
2
*D77
10
3090.469933
20
546.565084
11
3090.469933
21
560.065084
70
0
100
AcDbAlignedDimension
13
3081.469933
23
573.565084
14
3081.469933
24
546.565084
50
90
100
AcDbRotatedDimension
0
DIMENSION
5
b75
100
AcDbEntity
8
1
62
11
100
AcDbDimension
2
*D78
10
3087.469933
20
554.556635
11
3087.469933
21
560.056635
70
0
100
AcDbAlignedDimension
13
3081.469933
23
565.556635
14
3081.469933
24
554.556635
50
90
100
AcDbRotatedDimension
0
DIMENSION
5
b76
100
AcDbEntity
8
1
62
11
100
AcDbDimension
2
*D79
10
2525.617380
20
221.269188
11
2515.119896
21
221.269188
70
0
100
AcDbAlignedDimension
13
2504.622412
23
234.769188
14
2525.617380
24
234.769188
50
0
100
AcDbRotatedDimension
0
DIMENSION
5
b77
100
AcDbEntity
8
1
62
11
100
AcDbDimension
2
*D80
10
2527.617380
20
218.269188
11
2515.119896
21
218.269188
70
0
100
AcDbAlignedDimension
13
2502.622412
23
231.198298
14
2527.617380
24
230.269188
50
0
100
AcDbRotatedDimension
0
DIMENSION
5
b78
100
AcDbEntity
8
1
62
11
100
AcDbDimension
2
*D81
10
2509.622412
20
250.269188
11
2507.194757
21
253.020879
70
4
100
AcDbRadialDimension
15
2503.893275
25
254.291251
0
DIMENSION
5
b79
100
AcDbEntity
8
1
62
11
100
AcDbDimension
2
*D82
10
2509.622412
20
250.269188
11
2507.867781
21
252.281259
70
4
100
AcDbRadialDimension
15
2507.308229
25
254.701406
0
DIMENSION
5
b7a
100
AcDbEntity
8
1
62
11
100
AcDbDimension
2
*D83
10
2530.617380
20
225.519188
11
2530.617380
21
240.394188
70
0
100
AcDbAlignedDimension
13
2519.617380
23
255.269188
14
2519.617380
24
225.519188
50
90
100
AcDbRotatedDimension
0
DIMENSION
5
b7b
100
AcDbEntity
8
1
62
11
100
AcDbDimension
2
*D84
10
2533.617380
20
223.269188
11
2533.617380
21
240.269188
70
0
100
AcDbAlignedDimension
13
2520.617380
23
257.269188
14
2520.617380
24
223.269188
50
90
100
AcDbRotatedDimension
0
DIMENSION
5
b7c
100
AcDbEntity
8
1
62
11
100
AcDbDimension
2
*D85
10
2520.619990
20
250.332870
11
2519.945284
21
249.151530
70
4
100
AcDbRadialDimension
15
2523.120831
25
253.127202
0
DIMENSION
5
b7d
100
AcDbEntity
8
1
62
11
100
AcDbDimension
2
*D86
10
2525.286651
20
221.748745
11
2514.789167
21
221.748745
70
0
100
AcDbAlignedDimension
13
2504.291683
23
235.248745
14
2525.286651
24
235.248745
50
0
100
AcDbRotatedDimension
0
DIMENSION
5
b7e
100
AcDbEntity
8
1
62
11
100
AcDbDimension
2
*D87
10
2527.286651
20
218.748745
11
2514.789167
21
218.748745
70
0
100
AcDbAlignedDimension
13
2502.291683
23
231.677855
14
2527.286651
24
230.748745
50
0
100
AcDbRotatedDimension
0
DIMENSION
5
b7f
100
AcDbEntity
8
1
62
11
100
AcDbDimension
2
*D88
10
2509.291683
20
250.748745
11
2507.030173
21
248.303125
70
4
100
AcDbRadialDimension
15
2503.562546
25
254.770808
0
DIMENSION
5
b80
100
AcDbEntity
8
1
62
11
100
AcDbDimension
2
*D89
10
2509.291683
20
250.748745
11
2507.697064
21
249.048280
70
4
100
AcDbRadialDimension
15
2506.977500
25
255.180963
0
DIMENSION
5
b81
100
AcDbEntity
8
1
62
11
100
AcDbDimension
2
*D90
10
2530.286651
20
225.998745
11
2530.286651
21
240.873745
70
0
100
AcDbAlignedDimension
13
2519.286651
23
255.748745
14
2519.286651
24
225.998745
50
90
100
AcDbRotatedDimension
0
DIMENSION
5
b82
100
AcDbEntity
8
1
62
11
100
AcDbDimension
2
*D91
10
2533.286651
20
223.748745
11
2533.286651
21
240.748745
70
0
100
AcDbAlignedDimension
13
2520.286651
23
257.748745
14
2520.286651
24
223.748745
50
90
100
AcDbRotatedDimension
0
DIMENSION
5
b83
100
AcDbEntity
8
1
62
11
100
AcDbDimension
2
*D92
10
2520.289261
20
250.812427
11
2519.614555
21
249.631087
70
4
100
AcDbRadialDimension
15
2522.790102
25
253.606759
0
DIMENSION
5
b84
100
AcDbEntity
8
1
62
11
100
AcDbDimension
2
*D93
10
2563.702237
20
215.269188
11
2568.455685
21
215.269188
70
0
100
AcDbAlignedDimension
13
2573.209133
23
224.269188
14
2563.702237
24
240.269188
50
0
100
AcDbRotatedDimension
0
DIMENSION
5
b85
100
AcDbEntity
8
1
62
11
100
AcDbDimension
2
*D94
10
2572.209133
20
221.269188
11
2572.709133
21
221.269188
70
0
100
AcDbAlignedDimension
13
2573.209133
23
224.269188
14
2572.209133
24
221.269188
50
0
100
AcDbRotatedDimension
0
DIMENSION
5
b86
100
AcDbEntity
8
1
62
11
100
AcDbDimension
2
*D95
10
2566.209133
20
218.269188
11
2569.709133
21
218.269188
70
0
100
AcDbAlignedDimension
13
2573.209133
23
224.269188
14
2566.209133
24
227.769188
50
0
100
AcDbRotatedDimension
0
DIMENSION
5
b87
100
AcDbEntity
8
1
62
11
100
AcDbDimension
2
*D96
10
2572.209133
20
256.269188
11
2569.780970
21
258.840380
70
4
100
AcDbRadialDimension
15
2571.536109
25
257.008808
0
DIMENSION
5
b88
100
AcDbEntity
8
1
62
11
100
AcDbDimension
2
*D97
10
2582.209133
20
226.769188
11
2582.209133
21
240.269188
70
0
100
AcDbAlignedDimension
13
2573.209133
23
253.769188
14
2573.209133
24
226.769188
50
90
100
AcDbRotatedDimension
0
DIMENSION
5
b89
100
AcDbEntity
8
1
62
11
100
AcDbDimension
2
*D98
10
2579.209133
20
234.760739
11
2579.209133
21
240.260739
70
0
100
AcDbAlignedDimension
13
2573.209133
23
245.760739
14
2573.209133
24
234.760739
50
90
100
AcDbRotatedDimension
0
DIMENSION
5
b8a
100
AcDbEntity
8
1
62
11
100
AcDbDimension
2
*D99
10
2563.371508
20
215.748745
11
2568.124956
21
215.748745
70
0
100
AcDbAlignedDimension
13
2572.878404
23
224.748745
14
2563.371508
24
240.748745
50
0
100
AcDbRotatedDimension
0
DIMENSION
5
b8b
100
AcDbEntity
8
1
62
11
100
AcDbDimension
2
*D100
10
2571.878404
20
221.748745
11
2572.378404
21
221.748745
70
0
100
AcDbAlignedDimension
13
2572.878404
23
224.748745
14
2571.878404
24
221.748745
50
0
100
AcDbRotatedDimension
0
DIMENSION
5
b8c
100
AcDbEntity
8
1
62
11
100
AcDbDimension
2
*D101
10
2565.878404
20
218.748745
11
2569.378404
21
218.748745
70
0
100
AcDbAlignedDimension
13
2572.878404
23
224.748745
14
2565.878404
24
228.248745
50
0
100
AcDbRotatedDimension
0
DIMENSION
5
b8d
100
AcDbEntity
8
1
62
11
100
AcDbDimension
2
*D102
10
2571.878404
20
256.748745
11
2569.450241
21
259.319938
70
4
100
AcDbRadialDimension
15
2571.205379
25
257.488365
0
DIMENSION
5
b8e
100
AcDbEntity
8
1
62
11
100
AcDbDimension
2
*D103
10
2581.878404
20
227.248745
11
2581.878404
21
240.748745
70
0
100
AcDbAlignedDimension
13
2572.878404
23
254.248745
14
2572.878404
24
227.248745
50
90
100
AcDbRotatedDimension
0
DIMENSION
5
b8f
100
AcDbEntity
8
1
62
11
100
AcDbDimension
2
*D104
10
2578.878404
20
235.240296
11
2578.878404
21
240.740296
70
0
100
AcDbAlignedDimension
13
2572.878404
23
246.240296
14
2572.878404
24
235.240296
50
90
100
AcDbRotatedDimension
0
DIMENSION
5
b90
100
AcDbEntity
8
1
62
11
100
AcDbDimension
2
*D105
10
2574.103349
20
382.156688
11
2561.605865
21
382.156688
70
0
100
AcDbAlignedDimension
13
2549.108381
23
395.085798
14
2574.103349
24
394.156688
50
0
100
AcDbRotatedDimension
0
DIMENSION
5
b91
100
AcDbEntity
8
1
62
11
100
AcDbDimension
2
*D106
10
2572.103349
20
385.156688
11
2561.605865
21
385.156688
70
0
100
AcDbAlignedDimension
13
2551.108381
23
398.656688
14
2572.103349
24
398.656688
50
0
100
AcDbRotatedDimension
0
DIMENSION
5
b92
100
AcDbEntity
8
1
62
11
100
AcDbDimension
2
*D107
10
2556.108381
20
414.156688
11
2553.680725
21
416.908379
70
4
100
AcDbRadialDimension
15
2550.379244
25
418.178751
0
DIMENSION
5
b93
100
AcDbEntity
8
1
62
11
100
AcDbDimension
2
*D108
10
2556.108381
20
414.156688
11
2554.353750
21
416.168759
70
4
100
AcDbRadialDimension
15
2553.794198
25
418.588906
0
DIMENSION
5
b94
100
AcDbEntity
8
1
62
11
100
AcDbDimension
2
*D109
10
2577.103349
20
389.406688
11
2577.103349
21
404.281688
70
0
100
AcDbAlignedDimension
13
2566.103349
23
419.156688
14
2566.103349
24
389.406688
50
90
100
AcDbRotatedDimension
0
DIMENSION
5
b95
100
AcDbEntity
8
1
62
11
100
AcDbDimension
2
*D110
10
2580.103349
20
387.156688
11
2580.103349
21
404.156688
70
0
100
AcDbAlignedDimension
13
2567.103349
23
421.156688
14
2567.103349
24
387.156688
50
90
100
AcDbRotatedDimension
0
DIMENSION
5
b96
100
AcDbEntity
8
1
62
11
100
AcDbDimension
2
*D111
10
2567.105959
20
414.220370
11
2566.431253
21
413.039030
70
4
100
AcDbRadialDimension
15
2569.606800
25
417.014702
0
DIMENSION
5
b97
100
AcDbEntity
8
1
62
11
100
AcDbDimension
2
*D112
10
2610.188206
20
379.156688
11
2614.941654
21
379.156688
70
0
100
AcDbAlignedDimension
13
2619.695102
23
388.156688
14
2610.188206
24
404.156688
50
0
100
AcDbRotatedDimension
0
DIMENSION
5
b98
100
AcDbEntity
8
1
62
11
100
AcDbDimension
2
*D113
10
2612.695102
20
382.156688
11
2616.195102
21
382.156688
70
0
100
AcDbAlignedDimension
13
2619.695102
23
388.156688
14
2612.695102
24
391.656688
50
0
100
AcDbRotatedDimension
0
DIMENSION
5
b99
100
AcDbEntity
8
1
62
11
100
AcDbDimension
2
*D114
10
2618.695102
20
385.156688
11
2619.195102
21
385.156688
70
0
100
AcDbAlignedDimension
13
2619.695102
23
388.156688
14
2618.695102
24
385.156688
50
0
100
AcDbRotatedDimension
0
DIMENSION
5
b9a
100
AcDbEntity
8
1
62
11
100
AcDbDimension
2
*D115
10
2618.695102
20
420.156688
11
2616.266939
21
422.727880
70
4
100
AcDbRadialDimension
15
2618.022077
25
420.896308
0
DIMENSION
5
b9b
100
AcDbEntity
8
1
62
11
100
AcDbDimension
2
*D116
10
2628.695102
20
390.656688
11
2628.695102
21
404.156688
70
0
100
AcDbAlignedDimension
13
2619.695102
23
417.656688
14
2619.695102
24
390.656688
50
90
100
AcDbRotatedDimension
0
DIMENSION
5
b9c
100
AcDbEntity
8
1
62
11
100
AcDbDimension
2
*D117
10
2625.695102
20
398.648239
11
2625.695102
21
404.148239
70
0
100
AcDbAlignedDimension
13
2619.695102
23
409.648239
14
2619.695102
24
398.648239
50
90
100
AcDbRotatedDimension
0
DIMENSION
5
b9d
100
AcDbEntity
8
1
62
11
100
AcDbDimension
2
*D118
10
2924.812406
20
262.459291
11
2914.314922
21
262.459291
70
0
100
AcDbAlignedDimension
13
2903.817438
23
275.959291
14
2924.812406
24
275.959291
50
0
100
AcDbRotatedDimension
0
DIMENSION
5
b9e
100
AcDbEntity
8
1
62
11
100
AcDbDimension
2
*D119
10
2926.812406
20
259.459291
11
2914.314922
21
259.459291
70
0
100
AcDbAlignedDimension
13
2901.817438
23
272.388401
14
2926.812406
24
271.459291
50
0
100
AcDbRotatedDimension
0
DIMENSION
5
b9f
100
AcDbEntity
8
1
62
11
100
AcDbDimension
2
*D120
10
2908.817438
20
291.459291
11
2906.389782
21
294.210982
70
4
100
AcDbRadialDimension
15
2903.088301
25
295.481354
0
DIMENSION
5
ba0
100
AcDbEntity
8
1
62
11
100
AcDbDimension
2
*D121
10
2908.817438
20
291.459291
11
2907.062807
21
293.471362
70
4
100
AcDbRadialDimension
15
2906.503255
25
295.891509
0
DIMENSION
5
ba1
100
AcDbEntity
8
1
62
11
100
AcDbDimension
2
*D122
10
2929.812406
20
266.709291
11
2929.812406
21
281.584291
70
0
100
AcDbAlignedDimension
13
2918.812406
23
296.459291
14
2918.812406
24
266.709291
50
90
100
AcDbRotatedDimension
0
DIMENSION
5
ba2
100
AcDbEntity
8
1
62
11
100
AcDbDimension
2
*D123
10
2932.812406
20
264.459291
11
2932.812406
21
281.459291
70
0
100
AcDbAlignedDimension
13
2919.812406
23
298.459291
14
2919.812406
24
264.459291
50
90
100
AcDbRotatedDimension
0
DIMENSION
5
ba3
100
AcDbEntity
8
1
62
11
100
AcDbDimension
2
*D124
10
2919.815016
20
291.522973
11
2919.140310
21
290.341633
70
4
100
AcDbRadialDimension
15
2922.315857
25
294.317305
0
DIMENSION
5
ba4
100
AcDbEntity
8
1
62
11
100
AcDbDimension
2
*D125
10
2924.481677
20
262.938848
11
2913.984193
21
262.938848
70
0
100
AcDbAlignedDimension
13
2903.486709
23
276.438848
14
2924.481677
24
276.438848
50
0
100
AcDbRotatedDimension
0
DIMENSION
5
ba5
100
AcDbEntity
8
1
62
11
100
AcDbDimension
2
*D126
10
2926.481677
20
259.938848
11
2913.984193
21
259.938848
70
0
100
AcDbAlignedDimension
13
2901.486709
23
272.867958
14
2926.481677
24
271.938848
50
0
100
AcDbRotatedDimension
0
DIMENSION
5
ba6
100
AcDbEntity
8
1
62
11
100
AcDbDimension
2
*D127
10
2908.486709
20
291.938848
11
2906.225199
21
289.493228
70
4
100
AcDbRadialDimension
15
2902.757572
25
295.960911
0
DIMENSION
5
ba7
100
AcDbEntity
8
1
62
11
100
AcDbDimension
2
*D128
10
2908.486709
20
291.938848
11
2906.892090
21
290.238383
70
4
100
AcDbRadialDimension
15
2906.172525
25
296.371066
0
DIMENSION
5
ba8
100
AcDbEntity
8
1
62
11
100
AcDbDimension
2
*D129
10
2929.481677
20
267.188848
11
2929.481677
21
282.063848
70
0
100
AcDbAlignedDimension
13
2918.481677
23
296.938848
14
2918.481677
24
267.188848
50
90
100
AcDbRotatedDimension
0
DIMENSION
5
ba9
100
AcDbEntity
8
1
62
11
100
AcDbDimension
2
*D130
10
2932.481677
20
264.938848
11
2932.481677
21
281.938848
70
0
100
AcDbAlignedDimension
13
2919.481677
23
298.938848
14
2919.481677
24
264.938848
50
90
100
AcDbRotatedDimension
0
DIMENSION
5
baa
100
AcDbEntity
8
1
62
11
100
AcDbDimension
2
*D131
10
2919.484287
20
292.002530
11
2918.809581
21
290.821190
70
4
100
AcDbRadialDimension
15
2921.985128
25
294.796862
0
DIMENSION
5
bab
100
AcDbEntity
8
1
62
11
100
AcDbDimension
2
*D132
10
2962.897263
20
256.459291
11
2967.650711
21
256.459291
70
0
100
AcDbAlignedDimension
13
2972.404159
23
265.459291
14
2962.897263
24
281.459291
50
0
100
AcDbRotatedDimension
0
DIMENSION
5
bac
100
AcDbEntity
8
1
62
11
100
AcDbDimension
2
*D133
10
2971.404159
20
262.459291
11
2971.904159
21
262.459291
70
0
100
AcDbAlignedDimension
13
2972.404159
23
265.459291
14
2971.404159
24
262.459291
50
0
100
AcDbRotatedDimension
0
DIMENSION
5
bad
100
AcDbEntity
8
1
62
11
100
AcDbDimension
2
*D134
10
2965.404159
20
259.459291
11
2968.904159
21
259.459291
70
0
100
AcDbAlignedDimension
13
2972.404159
23
265.459291
14
2965.404159
24
268.959291
50
0
100
AcDbRotatedDimension
0
DIMENSION
5
bae
100
AcDbEntity
8
1
62
11
100
AcDbDimension
2
*D135
10
2971.404159
20
297.459291
11
2968.975996
21
300.030483
70
4
100
AcDbRadialDimension
15
2970.731134
25
298.198911
0
DIMENSION
5
baf
100
AcDbEntity
8
1
62
11
100
AcDbDimension
2
*D136
10
2981.404159
20
267.959291
11
2981.404159
21
281.459291
70
0
100
AcDbAlignedDimension
13
2972.404159
23
294.959291
14
2972.404159
24
267.959291
50
90
100
AcDbRotatedDimension
0
DIMENSION
5
bb0
100
AcDbEntity
8
1
62
11
100
AcDbDimension
2
*D137
10
2978.404159
20
275.950842
11
2978.404159
21
281.450842
70
0
100
AcDbAlignedDimension
13
2972.404159
23
286.950842
14
2972.404159
24
275.950842
50
90
100
AcDbRotatedDimension
0
DIMENSION
5
bb1
100
AcDbEntity
8
1
62
11
100
AcDbDimension
2
*D138
10
2962.566534
20
256.938848
11
2967.319982
21
256.938848
70
0
100
AcDbAlignedDimension
13
2972.073430
23
265.938848
14
2962.566534
24
281.938848
50
0
100
AcDbRotatedDimension
0
DIMENSION
5
bb2
100
AcDbEntity
8
1
62
11
100
AcDbDimension
2
*D139
10
2971.073430
20
262.938848
11
2971.573430
21
262.938848
70
0
100
AcDbAlignedDimension
13
2972.073430
23
265.938848
14
2971.073430
24
262.938848
50
0
100
AcDbRotatedDimension
0
DIMENSION
5
bb3
100
AcDbEntity
8
1
62
11
100
AcDbDimension
2
*D140
10
2965.073430
20
259.938848
11
2968.573430
21
259.938848
70
0
100
AcDbAlignedDimension
13
2972.073430
23
265.938848
14
2965.073430
24
269.438848
50
0
100
AcDbRotatedDimension
0
DIMENSION
5
bb4
100
AcDbEntity
8
1
62
11
100
AcDbDimension
2
*D141
10
2971.073430
20
297.938848
11
2968.645267
21
300.510041
70
4
100
AcDbRadialDimension
15
2970.400405
25
298.678468
0
DIMENSION
5
bb5
100
AcDbEntity
8
1
62
11
100
AcDbDimension
2
*D142
10
2981.073430
20
268.438848
11
2981.073430
21
281.938848
70
0
100
AcDbAlignedDimension
13
2972.073430
23
295.438848
14
2972.073430
24
268.438848
50
90
100
AcDbRotatedDimension
0
DIMENSION
5
bb6
100
AcDbEntity
8
1
62
11
100
AcDbDimension
2
*D143
10
2978.073430
20
276.430399
11
2978.073430
21
281.930399
70
0
100
AcDbAlignedDimension
13
2972.073430
23
287.430399
14
2972.073430
24
276.430399
50
90
100
AcDbRotatedDimension
0
DIMENSION
5
bb7
100
AcDbEntity
8
1
62
11
100
AcDbDimension
2
*D144
10
2973.298375
20
423.346791
11
2960.800891
21
423.346791
70
0
100
AcDbAlignedDimension
13
2948.303407
23
436.275901
14
2973.298375
24
435.346791
50
0
100
AcDbRotatedDimension
0
DIMENSION
5
bb8
100
AcDbEntity
8
1
62
11
100
AcDbDimension
2
*D145
10
2971.298375
20
426.346791
11
2960.800891
21
426.346791
70
0
100
AcDbAlignedDimension
13
2950.303407
23
439.846791
14
2971.298375
24
439.846791
50
0
100
AcDbRotatedDimension
0
DIMENSION
5
bb9
100
AcDbEntity
8
1
62
11
100
AcDbDimension
2
*D146
10
2955.303407
20
455.346791
11
2952.875751
21
458.098482
70
4
100
AcDbRadialDimension
15
2949.574270
25
459.368854
0
DIMENSION
5
bba
100
AcDbEntity
8
1
62
11
100
AcDbDimension
2
*D147
10
2955.303407
20
455.346791
11
2953.548776
21
457.358862
70
4
100
AcDbRadialDimension
15
2952.989223
25
459.779009
0
DIMENSION
5
bbb
100
AcDbEntity
8
1
62
11
100
AcDbDimension
2
*D148
10
2976.298375
20
430.596791
11
2976.298375
21
445.471791
70
0
100
AcDbAlignedDimension
13
2965.298375
23
460.346791
14
2965.298375
24
430.596791
50
90
100
AcDbRotatedDimension
0
DIMENSION
5
bbc
100
AcDbEntity
8
1
62
11
100
AcDbDimension
2
*D149
10
2979.298375
20
428.346791
11
2979.298375
21
445.346791
70
0
100
AcDbAlignedDimension
13
2966.298375
23
462.346791
14
2966.298375
24
428.346791
50
90
100
AcDbRotatedDimension
0
DIMENSION
5
bbd
100
AcDbEntity
8
1
62
11
100
AcDbDimension
2
*D150
10
2966.300985
20
455.410473
11
2965.626279
21
454.229133
70
4
100
AcDbRadialDimension
15
2968.801826
25
458.204805
0
DIMENSION
5
bbe
100
AcDbEntity
8
1
62
11
100
AcDbDimension
2
*D151
10
3009.383232
20
420.346791
11
3014.136680
21
420.346791
70
0
100
AcDbAlignedDimension
13
3018.890128
23
429.346791
14
3009.383232
24
445.346791
50
0
100
AcDbRotatedDimension
0
DIMENSION
5
bbf
100
AcDbEntity
8
1
62
11
100
AcDbDimension
2
*D152
10
3011.890128
20
423.346791
11
3015.390128
21
423.346791
70
0
100
AcDbAlignedDimension
13
3018.890128
23
429.346791
14
3011.890128
24
432.846791
50
0
100
AcDbRotatedDimension
0
DIMENSION
5
bc0
100
AcDbEntity
8
1
62
11
100
AcDbDimension
2
*D153
10
3017.890128
20
426.346791
11
3018.390128
21
426.346791
70
0
100
AcDbAlignedDimension
13
3018.890128
23
429.346791
14
3017.890128
24
426.346791
50
0
100
AcDbRotatedDimension
0
DIMENSION
5
bc1
100
AcDbEntity
8
1
62
11
100
AcDbDimension
2
*D154
10
3017.890128
20
461.346791
11
3015.461964
21
463.917983
70
4
100
AcDbRadialDimension
15
3017.217103
25
462.086411
0
DIMENSION
5
bc2
100
AcDbEntity
8
1
62
11
100
AcDbDimension
2
*D155
10
3027.890128
20
431.846791
11
3027.890128
21
445.346791
70
0
100
AcDbAlignedDimension
13
3018.890128
23
458.846791
14
3018.890128
24
431.846791
50
90
100
AcDbRotatedDimension
0
DIMENSION
5
bc3
100
AcDbEntity
8
1
62
11
100
AcDbDimension
2
*D156
10
3024.890128
20
439.838342
11
3024.890128
21
445.338342
70
0
100
AcDbAlignedDimension
13
3018.890128
23
450.838342
14
3018.890128
24
439.838342
50
90
100
AcDbRotatedDimension
0
ENDSEC
0
SECTION
2
OBJECTS
0
DICTIONARY
5
bc4
100
AcDbDictionary
3
ACAD_GROUP
350
bc5
3
ACAD_MLINESTYLE
350
bc6
0
DICTIONARY
5
bc5
102
{ACAD_REACTORS
330
bc4
102
}
100
AcDbDictionary
0
DICTIONARY
5
bc6
102
{ACAD_REACTORS
330
bc4
102
}
100
AcDbDictionary
3
STANDARD
350
bc7
0
MLINESTYLE
5
bc7
102
{ACAD_REACTORS
330
bc6
102
}
100
AcDbMlineStyle
2
STANDARD
70
0
3

62
0
51
90.0
52
90.0
71
2
49
0.5
62
256
6
BYLAYER
49
-0.5
62
256
6
BYLAYER
0
ENDSEC
0
EOF
